<?xml version="1.0" standalone="no"?>
<!DOCTYPE svg PUBLIC "-//W3C//DTD SVG 1.1//EN" "http://www.w3.org/Graphics/SVG/1.1/DTD/svg11.dtd" >
<svg xmlns="http://www.w3.org/2000/svg" xmlns:xlink="http://www.w3.org/1999/xlink" version="1.1">
<metadata>
Created by FontForge 20190801 at Thu Jan 19 13:18:24 2017
 By root
Copyright 2016 The Nunito Project Authors (contact@sansoxygen.com)
</metadata>
<defs>
<font id="NunitoSans-Bold" horiz-adv-x="600" >
  <font-face 
    font-family="Nunito Sans"
    font-weight="700"
    font-stretch="normal"
    units-per-em="1000"
    panose-1="0 0 8 0 0 0 0 0 0 0"
    ascent="800"
    descent="-200"
    x-height="488"
    cap-height="705"
    bbox="-346 -269 1306 1079"
    underline-thickness="50"
    underline-position="-100"
    unicode-range="U+000D-FB02"
  />
<missing-glyph horiz-adv-x="443" 
d="M363 705v-885h-281v885h281zM295 646h-146v-29h57v-33h-58v-29h147v29h-59v33h59v29zM236 532h-88v-92h147v30h-59v62zM206 501v-31h-29v31h29zM295 416h-147v-30h58v-32h-58v-30h88v62h59v30zM295 363h-29v-59h-118v-30h147v89zM295 255h-89v-50h30v20h30v-41h-89v71
h-29v-100h147v100zM295 101h-147v-100h147v100zM266 72v-41h-89v41h89zM295 -19h-147v-29h62l-62 -42v-29h147v29h-91l62 42h29v29z" />
    <glyph glyph-name="fi" unicode="fi" horiz-adv-x="612" 
d="M415 717h140v-125h-140v125zM224 489h323v-489h-125v395h-198v-395h-125v395h-94v94h94q0 106 56 159.5t169 58.5l43 2l6 -93l-47 -2q-56 -3 -79 -27.5t-23 -73.5v-24z" />
    <glyph glyph-name="fl" unicode="fl" horiz-adv-x="612" 
d="M224 489h129v-94h-129v-395h-125v395h-94v94h94q0 105 54.5 158t169.5 59l49 3l8 -93l-47 -2q-59 -3 -84 -26.5t-25 -75.5v-23zM423 0v705h125v-705h-125z" />
    <glyph glyph-name=".notdef" horiz-adv-x="443" 
d="M363 705v-885h-281v885h281zM295 646h-146v-29h57v-33h-58v-29h147v29h-59v33h59v29zM236 532h-88v-92h147v30h-59v62zM206 501v-31h-29v31h29zM295 416h-147v-30h58v-32h-58v-30h88v62h59v30zM295 363h-29v-59h-118v-30h147v89zM295 255h-89v-50h30v20h30v-41h-89v71
h-29v-100h147v100zM295 101h-147v-100h147v100zM266 72v-41h-89v41h89zM295 -19h-147v-29h62l-62 -42v-29h147v29h-91l62 42h29v29z" />
    <glyph glyph-name="NULL" horiz-adv-x="0" 
 />
    <glyph glyph-name="NULL" horiz-adv-x="0" 
 />
    <glyph glyph-name="nonmarkingreturn" unicode="&#xd;" horiz-adv-x="271" 
 />
    <glyph glyph-name="space" unicode=" " horiz-adv-x="271" 
 />
    <glyph glyph-name="A" unicode="A" horiz-adv-x="742" 
d="M615 0l-71 165h-343l-71 -165h-130l319 705h105l319 -705h-128zM243 265h258l-129 300z" />
    <glyph glyph-name="Aacute" unicode="&#xc1;" horiz-adv-x="742" 
d="M615 0l-71 165h-343l-71 -165h-130l319 705h105l319 -705h-128zM243 265h258l-129 300zM411 765h-80l102 154h121z" />
    <glyph glyph-name="Abreve" unicode="&#x102;" horiz-adv-x="742" 
d="M615 0l-71 165h-343l-71 -165h-130l319 705h105l319 -705h-128zM243 265h258l-129 300zM264.5 802q-45.5 27 -65.5 81l62 27q19 -32 46.5 -44.5t63.5 -12.5t63.5 12.5t46.5 44.5l62 -27q-20 -54 -65.5 -81t-106.5 -27t-106.5 27z" />
    <glyph glyph-name="uni1EAE" unicode="&#x1eae;" horiz-adv-x="742" 
d="M615 0l-71 165h-343l-71 -165h-130l319 705h105l319 -705h-128zM243 265h258l-129 300zM408 870h-74l99 141h114zM264.5 787q-45.5 27 -65.5 81l51 22q19 -32 51 -47t70 -15t70 15t51 47l51 -22q-20 -54 -65.5 -81t-106.5 -27t-106.5 27z" />
    <glyph glyph-name="uni1EB6" unicode="&#x1eb6;" horiz-adv-x="742" 
d="M615 0l-71 165h-343l-71 -165h-130l319 705h105l319 -705h-128zM243 265h258l-129 300zM311 -77h122v-116h-122v116zM264.5 802q-45.5 27 -65.5 81l62 27q19 -32 46.5 -44.5t63.5 -12.5t63.5 12.5t46.5 44.5l62 -27q-20 -54 -65.5 -81t-106.5 -27t-106.5 27z" />
    <glyph glyph-name="uni1EB0" unicode="&#x1eb0;" horiz-adv-x="742" 
d="M615 0l-71 165h-343l-71 -165h-130l319 705h105l319 -705h-128zM243 265h258l-129 300zM334 870l-139 141h114l99 -141h-74zM264.5 787q-45.5 27 -65.5 81l51 22q19 -32 51 -47t70 -15t70 15t51 47l51 -22q-20 -54 -65.5 -81t-106.5 -27t-106.5 27z" />
    <glyph glyph-name="uni1EB2" unicode="&#x1eb2;" horiz-adv-x="742" 
d="M615 0l-71 165h-343l-71 -165h-130l319 705h105l319 -705h-128zM243 265h258l-129 300zM404 871h-66v19q0 19 12.5 28.5t33.5 16.5q8 3 14 6t6 7q0 6 -9 10.5t-27 4.5q-26 0 -58 -11l-18 47q41 18 90 18q47 0 75 -17t28 -44q0 -19 -12 -28.5t-35 -18.5q-18 -8 -26 -14
t-8 -16v-8zM264.5 787q-45.5 27 -65.5 81l51 22q19 -32 51 -47t70 -15t70 15t51 47l51 -22q-20 -54 -65.5 -81t-106.5 -27t-106.5 27z" />
    <glyph glyph-name="uni1EB4" unicode="&#x1eb4;" horiz-adv-x="742" 
d="M615 0l-71 165h-343l-71 -165h-130l319 705h105l319 -705h-128zM243 265h258l-129 300zM231 988.5q29 29.5 72 29.5q19 0 36.5 -6t42.5 -17q15 -7 30.5 -12.5t26.5 -5.5q20 0 31 10t13 28h57q0 -45 -29 -74.5t-72 -29.5q-19 0 -35 5t-44 17q-38 18 -57 18q-20 0 -31 -9.5
t-13 -27.5h-57q0 45 29 74.5zM264.5 787q-45.5 27 -65.5 81l51 22q19 -32 51 -47t70 -15t70 15t51 47l51 -22q-20 -54 -65.5 -81t-106.5 -27t-106.5 27z" />
    <glyph glyph-name="Acircumflex" unicode="&#xc2;" horiz-adv-x="742" 
d="M615 0l-71 165h-343l-71 -165h-130l319 705h105l319 -705h-128zM243 265h258l-129 300zM305 765h-98l127 154h74l127 -154h-98l-66 92z" />
    <glyph glyph-name="uni1EA4" unicode="&#x1ea4;" horiz-adv-x="742" 
d="M615 0l-71 165h-343l-71 -165h-130l319 705h105l319 -705h-128zM243 265h258l-129 300zM526 870h-64l79 141h110zM304 765h-97l127 142h74l127 -142h-97l-67 81z" />
    <glyph glyph-name="uni1EAC" unicode="&#x1eac;" horiz-adv-x="742" 
d="M615 0l-71 165h-343l-71 -165h-130l319 705h105l319 -705h-128zM243 265h258l-129 300zM311 -77h122v-116h-122v116zM305 765h-98l127 154h74l127 -154h-98l-66 92z" />
    <glyph glyph-name="uni1EA6" unicode="&#x1ea6;" horiz-adv-x="742" 
d="M615 0l-71 165h-343l-71 -165h-130l319 705h105l319 -705h-128zM243 265h258l-129 300zM504 870l-118 141h110l72 -141h-64zM304 765h-97l127 142h74l127 -142h-97l-67 81z" />
    <glyph glyph-name="uni1EA8" unicode="&#x1ea8;" horiz-adv-x="742" 
d="M615 0l-71 165h-343l-71 -165h-130l319 705h105l319 -705h-128zM243 265h258l-129 300zM527 871h-66v19q0 19 12.5 28.5t33.5 16.5q8 3 14 6t6 7q0 6 -9 10.5t-27 4.5q-26 0 -59 -11l-17 47q41 18 90 18q47 0 75 -17t28 -44q0 -19 -12 -28.5t-35 -18.5q-18 -8 -26 -14
t-8 -16v-8zM304 765h-97l127 142h74l127 -142h-97l-67 81z" />
    <glyph glyph-name="uni1EAA" unicode="&#x1eaa;" horiz-adv-x="742" 
d="M615 0l-71 165h-343l-71 -165h-130l319 705h105l319 -705h-128zM243 265h258l-129 300zM231 996.5q29 29.5 72 29.5q19 0 36.5 -5.5t42.5 -15.5q15 -6 30.5 -11t26.5 -5q20 0 31 9.5t13 26.5h57q0 -44 -29 -73.5t-72 -29.5q-19 0 -36.5 5.5t-42.5 15.5q-15 6 -30.5 11
t-26.5 5q-20 0 -31 -9.5t-13 -26.5h-57q0 44 29 73.5zM304 765h-97l127 142h74l127 -142h-97l-67 81z" />
    <glyph glyph-name="uni0200" unicode="&#x200;" horiz-adv-x="742" 
d="M615 0l-71 165h-343l-71 -165h-130l319 705h105l319 -705h-128zM243 265h258l-129 300zM274 765l-99 154h89l73 -154h-63zM405 765l-99 154h90l72 -154h-63z" />
    <glyph glyph-name="Adieresis" unicode="&#xc4;" horiz-adv-x="742" 
d="M615 0l-71 165h-343l-71 -165h-130l319 705h105l319 -705h-128zM243 265h258l-129 300zM219 900h120v-115h-120v115zM403 900h120v-115h-120v115z" />
    <glyph glyph-name="uni1EA0" unicode="&#x1ea0;" horiz-adv-x="742" 
d="M615 0l-71 165h-343l-71 -165h-130l319 705h105l319 -705h-128zM243 265h258l-129 300zM311 -77h122v-116h-122v116z" />
    <glyph glyph-name="Agrave" unicode="&#xc0;" horiz-adv-x="742" 
d="M615 0l-71 165h-343l-71 -165h-130l319 705h105l319 -705h-128zM243 265h258l-129 300zM331 765l-143 154h121l102 -154h-80z" />
    <glyph glyph-name="uni1EA2" unicode="&#x1ea2;" horiz-adv-x="742" 
d="M615 0l-71 165h-343l-71 -165h-130l319 705h105l319 -705h-128zM243 265h258l-129 300zM404 765h-66v20q0 18 11.5 27.5t31.5 19.5q9 4 16 9t7 10q0 17 -36 17q-26 0 -58 -11l-18 49q42 17 90 17q47 0 75 -18t28 -46q0 -19 -12.5 -30t-34.5 -21q-18 -9 -26 -15t-8 -16
v-12z" />
    <glyph glyph-name="uni0202" unicode="&#x202;" horiz-adv-x="742" 
d="M615 0l-71 165h-343l-71 -165h-130l319 705h105l319 -705h-128zM243 265h258l-129 300zM477.5 883q45.5 -27 65.5 -81l-62 -26q-19 31 -46.5 44t-63.5 13t-63.5 -13t-46.5 -44l-62 26q20 54 65.5 81t106.5 27t106.5 -27z" />
    <glyph glyph-name="Amacron" unicode="&#x100;" horiz-adv-x="742" 
d="M615 0l-71 165h-343l-71 -165h-130l319 705h105l319 -705h-128zM243 265h258l-129 300zM217 802v81h308v-81h-308z" />
    <glyph glyph-name="Aogonek" unicode="&#x104;" horiz-adv-x="742" 
d="M758 -174q-44 -21 -95 -21q-53 0 -88 30t-35 78q0 33 17 61.5t49 46.5l-62 144h-343l-71 -165h-130l319 705h105l319 -705h-39q-37 0 -58.5 -19.5t-21.5 -49.5q0 -28 16 -42.5t46 -14.5q28 0 55 13zM243 265h258l-129 300z" />
    <glyph glyph-name="Aring" unicode="&#xc5;" horiz-adv-x="742" 
d="M544 165h-343l-71 -165h-130l312 689q-22 15 -34.5 37.5t-12.5 49.5q0 44 31 74t76 30q44 0 75 -30t31 -74q0 -27 -12.5 -49.5t-34.5 -37.5l312 -689h-128zM339 809.5q-13 -13.5 -13 -33.5t13 -33.5t33 -13.5q19 0 32 13.5t13 33.5t-13 33.5t-32 13.5q-20 0 -33 -13.5z
M243 265h258l-129 300z" />
    <glyph glyph-name="Aringacute" unicode="&#x1fa;" horiz-adv-x="742" 
d="M544 165h-343l-71 -165h-130l312 689q-22 15 -34.5 37.5t-12.5 49.5q0 44 31 74t76 30q24 0 48 -11l70 75h122l-145 -121q11 -22 11 -47q0 -27 -12.5 -49.5t-34.5 -37.5l312 -689h-128zM339 809.5q-13 -13.5 -13 -33.5t13 -33.5t33 -13.5q19 0 32 13.5t13 33.5t-13 33.5
t-32 13.5q-20 0 -33 -13.5zM243 265h258l-129 300z" />
    <glyph glyph-name="Atilde" unicode="&#xc3;" horiz-adv-x="742" 
d="M615 0l-71 165h-343l-71 -165h-130l319 705h105l319 -705h-128zM243 265h258l-129 300zM230 877q28 34 73 34q19 0 36 -7.5t43 -22.5q19 -12 32 -18t25 -6q20 0 31 14t13 37h57q0 -65 -28 -99.5t-73 -34.5q-19 0 -37 8t-42 23q-23 13 -34.5 18.5t-22.5 5.5
q-20 0 -31 -14.5t-13 -37.5h-57q0 66 28 100z" />
    <glyph glyph-name="AE" unicode="&#xc6;" horiz-adv-x="997" 
d="M956 603h-404l43 -194h341v-101h-318l45 -206h293v-102h-389l-36 165h-314l-98 -165h-139l438 705h538v-102zM276 265h234l-63 289z" />
    <glyph glyph-name="AEacute" unicode="&#x1fc;" horiz-adv-x="997" 
d="M956 603h-404l43 -194h341v-101h-318l45 -206h293v-102h-389l-36 165h-314l-98 -165h-139l438 705h538v-102zM276 265h234l-63 289zM542 765h-80l102 154h121z" />
    <glyph glyph-name="B" unicode="B" horiz-adv-x="683" 
d="M604.5 302q33.5 -45 33.5 -110q0 -90 -64.5 -141t-177.5 -51h-320v705h310q110 0 172.5 -48.5t62.5 -135.5q0 -56 -29.5 -97t-81.5 -60q61 -17 94.5 -62zM202 408h163q133 0 133 99q0 50 -33 74t-100 24h-163v-197zM484 125q32 25 32 78t-32.5 79t-101.5 26h-180v-208
h180q70 0 102 25z" />
    <glyph glyph-name="C" unicode="C" horiz-adv-x="678" 
d="M214.5 35.5q-77.5 44.5 -119 126.5t-41.5 191t41.5 190.5t119 126t181.5 44.5q71 0 134 -22t106 -62l-43 -94q-48 38 -95 55.5t-100 17.5q-102 0 -157.5 -66t-55.5 -190q0 -125 55.5 -191t157.5 -66q53 0 100 17.5t95 55.5l43 -94q-43 -40 -106 -62t-134 -22
q-104 0 -181.5 44.5z" />
    <glyph glyph-name="Cacute" unicode="&#x106;" horiz-adv-x="678" 
d="M214.5 35.5q-77.5 44.5 -119 126.5t-41.5 191t41.5 190.5t119 126t181.5 44.5q71 0 134 -22t106 -62l-43 -94q-48 38 -95 55.5t-100 17.5q-102 0 -157.5 -66t-55.5 -190q0 -125 55.5 -191t157.5 -66q53 0 100 17.5t95 55.5l43 -94q-43 -40 -106 -62t-134 -22
q-104 0 -181.5 44.5zM431 765h-80l102 154h121z" />
    <glyph glyph-name="Ccaron" unicode="&#x10c;" horiz-adv-x="678" 
d="M214.5 35.5q-77.5 44.5 -119 126.5t-41.5 191t41.5 190.5t119 126t181.5 44.5q71 0 134 -22t106 -62l-43 -94q-48 38 -95 55.5t-100 17.5q-102 0 -157.5 -66t-55.5 -190q0 -125 55.5 -191t157.5 -66q53 0 100 17.5t95 55.5l43 -94q-43 -40 -106 -62t-134 -22
q-104 0 -181.5 44.5zM457 919h98l-127 -154h-74l-127 154h98l66 -92z" />
    <glyph glyph-name="Ccedilla" unicode="&#xc7;" horiz-adv-x="678" 
d="M539 16.5q-57 -21.5 -123 -25.5l-4 -32q6 1 17 1q36 0 58 -18t22 -51q0 -38 -33.5 -62t-93.5 -24q-22 0 -47.5 4.5t-44.5 13.5l12 52q43 -14 78 -14q23 0 36 7.5t13 22.5q0 10 -8.5 16t-24.5 6q-14 0 -40 -7l-19 19l8 69q-90 10 -155.5 57t-100.5 124.5t-35 177.5
q0 109 41.5 190.5t119 126t181.5 44.5q71 0 134 -22t106 -62l-43 -94q-48 38 -95 55.5t-100 17.5q-102 0 -157.5 -66t-55.5 -190q0 -125 55.5 -191t157.5 -66q53 0 100 17.5t95 55.5l43 -94q-40 -37 -97 -58.5z" />
    <glyph glyph-name="uni1E08" unicode="&#x1e08;" horiz-adv-x="678" 
d="M574 919l-143 -154h-80l102 154h121zM539 16.5q-57 -21.5 -123 -25.5l-4 -32q6 1 17 1q36 0 58 -18t22 -51q0 -38 -33.5 -62t-93.5 -24q-22 0 -47.5 4.5t-44.5 13.5l12 52q43 -14 78 -14q23 0 36 7.5t13 22.5q0 10 -8.5 16t-24.5 6q-14 0 -40 -7l-19 19l8 69
q-90 10 -155.5 57t-100.5 124.5t-35 177.5q0 109 41.5 190.5t119 126t181.5 44.5q71 0 134 -22t106 -62l-43 -94q-48 38 -95 55.5t-100 17.5q-102 0 -157.5 -66t-55.5 -190q0 -125 55.5 -191t157.5 -66q53 0 100 17.5t95 55.5l43 -94q-40 -37 -97 -58.5z" />
    <glyph glyph-name="Ccircumflex" unicode="&#x108;" horiz-adv-x="678" 
d="M214.5 35.5q-77.5 44.5 -119 126.5t-41.5 191t41.5 190.5t119 126t181.5 44.5q71 0 134 -22t106 -62l-43 -94q-48 38 -95 55.5t-100 17.5q-102 0 -157.5 -66t-55.5 -190q0 -125 55.5 -191t157.5 -66q53 0 100 17.5t95 55.5l43 -94q-43 -40 -106 -62t-134 -22
q-104 0 -181.5 44.5zM325 765h-98l127 154h74l127 -154h-98l-66 92z" />
    <glyph glyph-name="Cdotaccent" unicode="&#x10a;" horiz-adv-x="678" 
d="M214.5 35.5q-77.5 44.5 -119 126.5t-41.5 191t41.5 190.5t119 126t181.5 44.5q71 0 134 -22t106 -62l-43 -94q-48 38 -95 55.5t-100 17.5q-102 0 -157.5 -66t-55.5 -190q0 -125 55.5 -191t157.5 -66q53 0 100 17.5t95 55.5l43 -94q-43 -40 -106 -62t-134 -22
q-104 0 -181.5 44.5zM322 904h138v-123h-138v123z" />
    <glyph glyph-name="D" unicode="D" horiz-adv-x="754" 
d="M76 705h260q173 0 268.5 -92.5t95.5 -259.5t-95.5 -260t-268.5 -93h-260v705zM328 105q243 0 243 248q0 247 -243 247h-123v-495h123z" />
    <glyph glyph-name="uni01C4" unicode="&#x1c4;" horiz-adv-x="1341" 
d="M76 705h260q173 0 268.5 -92.5t95.5 -259.5t-95.5 -260t-268.5 -93h-260v705zM328 105q243 0 243 248q0 247 -243 247h-123v-495h123zM931 103h375v-103h-519v94l362 508h-362v103h508v-93zM1107 919h98l-127 -154h-74l-127 154h98l66 -92z" />
    <glyph glyph-name="Eth" unicode="&#xd0;" horiz-adv-x="778" 
d="M628.5 612.5q95.5 -92.5 95.5 -259.5t-96 -260t-268 -93h-260v307h-88v99h88v299h260q173 0 268.5 -92.5zM595 353q0 247 -243 247h-124v-194h189v-99h-189v-202h124q243 0 243 248z" />
    <glyph glyph-name="Dcaron" unicode="&#x10e;" horiz-adv-x="754" 
d="M76 705h260q173 0 268.5 -92.5t95.5 -259.5t-95.5 -260t-268.5 -93h-260v705zM328 105q243 0 243 248q0 247 -243 247h-123v-495h123zM443 919h98l-127 -154h-74l-127 154h98l66 -92z" />
    <glyph glyph-name="Dcroat" unicode="&#x110;" horiz-adv-x="778" 
d="M628.5 612.5q95.5 -92.5 95.5 -259.5t-96 -260t-268 -93h-260v307h-88v99h88v299h260q173 0 268.5 -92.5zM595 353q0 247 -243 247h-124v-194h189v-99h-189v-202h124q243 0 243 248z" />
    <glyph glyph-name="uni1E0C" unicode="&#x1e0c;" horiz-adv-x="754" 
d="M76 705h260q173 0 268.5 -92.5t95.5 -259.5t-95.5 -260t-268.5 -93h-260v705zM328 105q243 0 243 248q0 247 -243 247h-123v-495h123zM316 -77h122v-116h-122v116z" />
    <glyph glyph-name="uni1E0E" unicode="&#x1e0e;" horiz-adv-x="754" 
d="M76 705h260q173 0 268.5 -92.5t95.5 -259.5t-95.5 -260t-268.5 -93h-260v705zM328 105q243 0 243 248q0 247 -243 247h-123v-495h123zM223 -174v77h308v-77h-308z" />
    <glyph glyph-name="uni01C5" unicode="&#x1c5;" horiz-adv-x="1264" 
d="M76 705h260q173 0 268.5 -92.5t95.5 -259.5t-95.5 -260t-268.5 -93h-260v705zM328 105q243 0 243 248q0 247 -243 247h-123v-495h123zM949 94h278v-94h-426v87l266 308h-261v94h411v-85zM1079 757h101l-125 -204h-78l-125 204h101l63 -126z" />
    <glyph glyph-name="E" unicode="E" horiz-adv-x="589" 
d="M76 0v705h472v-102h-346v-194h326v-101h-326v-206h346v-102h-472z" />
    <glyph glyph-name="Eacute" unicode="&#xc9;" horiz-adv-x="589" 
d="M76 0v705h472v-102h-346v-194h326v-101h-326v-206h346v-102h-472zM368 765h-80l102 154h121z" />
    <glyph glyph-name="Ebreve" unicode="&#x114;" horiz-adv-x="589" 
d="M76 0v705h472v-102h-346v-194h326v-101h-326v-206h346v-102h-472zM221.5 802q-45.5 27 -65.5 81l62 27q19 -32 46.5 -44.5t63.5 -12.5t63.5 12.5t46.5 44.5l62 -27q-20 -54 -65.5 -81t-106.5 -27t-106.5 27z" />
    <glyph glyph-name="Ecaron" unicode="&#x11a;" horiz-adv-x="589" 
d="M76 0v705h472v-102h-346v-194h326v-101h-326v-206h346v-102h-472zM394 919h98l-127 -154h-74l-127 154h98l66 -92z" />
    <glyph glyph-name="uni0228" unicode="&#x228;" horiz-adv-x="589" 
d="M202 603v-194h326v-101h-326v-206h346v-102h-194l-5 -41q6 1 17 1q36 0 58 -18t22 -51q0 -38 -33.5 -62t-93.5 -24q-22 0 -47.5 4.5t-44.5 13.5l12 52q43 -14 78 -14q23 0 36 7.5t13 22.5q0 10 -8.5 16t-24.5 6q-14 0 -40 -7l-19 19l9 75h-207v705h472v-102h-346z" />
    <glyph glyph-name="uni1E1C" unicode="&#x1e1c;" horiz-adv-x="589" 
d="M221.5 802q-45.5 27 -65.5 81l62 27q19 -32 46.5 -44.5t63.5 -12.5t63.5 12.5t46.5 44.5l62 -27q-20 -54 -65.5 -81t-106.5 -27t-106.5 27zM202 603v-194h326v-101h-326v-206h346v-102h-194l-5 -41q6 1 17 1q36 0 58 -18t22 -51q0 -38 -33.5 -62t-93.5 -24
q-22 0 -47.5 4.5t-44.5 13.5l12 52q43 -14 78 -14q23 0 36 7.5t13 22.5q0 10 -8.5 16t-24.5 6q-14 0 -40 -7l-19 19l9 75h-207v705h472v-102h-346z" />
    <glyph glyph-name="Ecircumflex" unicode="&#xca;" horiz-adv-x="589" 
d="M76 0v705h472v-102h-346v-194h326v-101h-326v-206h346v-102h-472zM262 765h-98l127 154h74l127 -154h-98l-66 92z" />
    <glyph glyph-name="uni1EBE" unicode="&#x1ebe;" horiz-adv-x="589" 
d="M76 0v705h472v-102h-346v-194h326v-101h-326v-206h346v-102h-472zM483 870h-64l79 141h110zM261 765h-97l127 142h74l127 -142h-97l-67 81z" />
    <glyph glyph-name="uni1EC6" unicode="&#x1ec6;" horiz-adv-x="589" 
d="M76 0v705h472v-102h-346v-194h326v-101h-326v-206h346v-102h-472zM267 -77h122v-116h-122v116zM262 765h-98l127 154h74l127 -154h-98l-66 92z" />
    <glyph glyph-name="uni1EC0" unicode="&#x1ec0;" horiz-adv-x="589" 
d="M76 0v705h472v-102h-346v-194h326v-101h-326v-206h346v-102h-472zM461 870l-118 141h110l72 -141h-64zM261 765h-97l127 142h74l127 -142h-97l-67 81z" />
    <glyph glyph-name="uni1EC2" unicode="&#x1ec2;" horiz-adv-x="589" 
d="M76 0v705h472v-102h-346v-194h326v-101h-326v-206h346v-102h-472zM484 871h-66v19q0 19 12.5 28.5t33.5 16.5q8 3 14 6t6 7q0 6 -9 10.5t-27 4.5q-26 0 -59 -11l-17 47q41 18 90 18q47 0 75 -17t28 -44q0 -19 -12 -28.5t-35 -18.5q-18 -8 -26 -14t-8 -16v-8zM261 765h-97
l127 142h74l127 -142h-97l-67 81z" />
    <glyph glyph-name="uni1EC4" unicode="&#x1ec4;" horiz-adv-x="589" 
d="M76 0v705h472v-102h-346v-194h326v-101h-326v-206h346v-102h-472zM188 996.5q29 29.5 72 29.5q19 0 36.5 -5.5t42.5 -15.5q15 -6 30.5 -11t26.5 -5q20 0 31 9.5t13 26.5h57q0 -44 -29 -73.5t-72 -29.5q-19 0 -36.5 5.5t-42.5 15.5q-15 6 -30.5 11t-26.5 5q-20 0 -31 -9.5
t-13 -26.5h-57q0 44 29 73.5zM261 765h-97l127 142h74l127 -142h-97l-67 81z" />
    <glyph glyph-name="uni0204" unicode="&#x204;" horiz-adv-x="589" 
d="M76 0v705h472v-102h-346v-194h326v-101h-326v-206h346v-102h-472zM231 765l-99 154h89l73 -154h-63zM362 765l-99 154h90l72 -154h-63z" />
    <glyph glyph-name="Edieresis" unicode="&#xcb;" horiz-adv-x="589" 
d="M76 0v705h472v-102h-346v-194h326v-101h-326v-206h346v-102h-472zM176 900h120v-115h-120v115zM360 900h120v-115h-120v115z" />
    <glyph glyph-name="Edotaccent" unicode="&#x116;" horiz-adv-x="589" 
d="M76 0v705h472v-102h-346v-194h326v-101h-326v-206h346v-102h-472zM259 904h138v-123h-138v123z" />
    <glyph glyph-name="uni1EB8" unicode="&#x1eb8;" horiz-adv-x="589" 
d="M76 0v705h472v-102h-346v-194h326v-101h-326v-206h346v-102h-472zM267 -77h122v-116h-122v116z" />
    <glyph glyph-name="Egrave" unicode="&#xc8;" horiz-adv-x="589" 
d="M76 0v705h472v-102h-346v-194h326v-101h-326v-206h346v-102h-472zM288 765l-143 154h121l102 -154h-80z" />
    <glyph glyph-name="uni1EBA" unicode="&#x1eba;" horiz-adv-x="589" 
d="M76 0v705h472v-102h-346v-194h326v-101h-326v-206h346v-102h-472zM361 765h-66v20q0 18 11.5 27.5t31.5 19.5q9 4 16 9t7 10q0 17 -36 17q-26 0 -58 -11l-18 49q42 17 90 17q47 0 75 -18t28 -46q0 -19 -12.5 -30t-34.5 -21q-18 -9 -26 -15t-8 -16v-12z" />
    <glyph glyph-name="uni0206" unicode="&#x206;" horiz-adv-x="589" 
d="M76 0v705h472v-102h-346v-194h326v-101h-326v-206h346v-102h-472zM434.5 883q45.5 -27 65.5 -81l-62 -26q-19 31 -46.5 44t-63.5 13t-63.5 -13t-46.5 -44l-62 26q20 54 65.5 81t106.5 27t106.5 -27z" />
    <glyph glyph-name="Emacron" unicode="&#x112;" horiz-adv-x="589" 
d="M76 0v705h472v-102h-346v-194h326v-101h-326v-206h346v-102h-472zM174 802v81h308v-81h-308z" />
    <glyph glyph-name="uni1E16" unicode="&#x1e16;" horiz-adv-x="589" 
d="M76 0v705h472v-102h-346v-194h326v-101h-326v-206h346v-102h-472zM174 802v81h308v-81h-308zM368 925h-80l102 154h121z" />
    <glyph glyph-name="uni1E14" unicode="&#x1e14;" horiz-adv-x="589" 
d="M76 0v705h472v-102h-346v-194h326v-101h-326v-206h346v-102h-472zM174 802v81h308v-81h-308zM288 925l-143 154h121l102 -154h-80z" />
    <glyph glyph-name="Eogonek" unicode="&#x118;" horiz-adv-x="589" 
d="M585 -174q-44 -21 -95 -21q-55 0 -89.5 30.5t-34.5 77.5q0 52 39 87h-329v705h472v-102h-346v-194h326v-101h-326v-206h346v-102h-20q-36 0 -56.5 -19t-20.5 -50q0 -28 16 -42.5t45 -14.5q27 0 56 13z" />
    <glyph glyph-name="uni1EBC" unicode="&#x1ebc;" horiz-adv-x="589" 
d="M76 0v705h472v-102h-346v-194h326v-101h-326v-206h346v-102h-472zM187 877q28 34 73 34q19 0 36 -7.5t43 -22.5q19 -12 32 -18t25 -6q20 0 31 14t13 37h57q0 -65 -28 -99.5t-73 -34.5q-19 0 -37 8t-42 23q-23 13 -34.5 18.5t-22.5 5.5q-20 0 -31 -14.5t-13 -37.5h-57
q0 66 28 100z" />
    <glyph glyph-name="F" unicode="F" horiz-adv-x="566" 
d="M76 0v705h462v-103h-335v-192h315v-103h-315v-307h-127z" />
    <glyph glyph-name="G" unicode="G" horiz-adv-x="733" 
d="M664 381v-338q-48 -24 -116.5 -38t-139.5 -14q-109 0 -189 43.5t-122.5 125t-42.5 193.5q0 111 42.5 192.5t121 125t184.5 43.5q74 0 139 -21.5t108 -61.5l-43 -93q-49 38 -96.5 54.5t-104.5 16.5q-109 0 -164.5 -64.5t-55.5 -191.5q0 -260 228 -260q68 0 136 19v177
h-152v92h267z" />
    <glyph glyph-name="Gbreve" unicode="&#x11e;" horiz-adv-x="733" 
d="M664 381v-338q-48 -24 -116.5 -38t-139.5 -14q-109 0 -189 43.5t-122.5 125t-42.5 193.5q0 111 42.5 192.5t121 125t184.5 43.5q74 0 139 -21.5t108 -61.5l-43 -93q-49 38 -96.5 54.5t-104.5 16.5q-109 0 -164.5 -64.5t-55.5 -191.5q0 -260 228 -260q68 0 136 19v177
h-152v92h267zM294.5 802q-45.5 27 -65.5 81l62 27q19 -32 46.5 -44.5t63.5 -12.5t63.5 12.5t46.5 44.5l62 -27q-20 -54 -65.5 -81t-106.5 -27t-106.5 27z" />
    <glyph glyph-name="Gcaron" unicode="&#x1e6;" horiz-adv-x="733" 
d="M664 381v-338q-48 -24 -116.5 -38t-139.5 -14q-109 0 -189 43.5t-122.5 125t-42.5 193.5q0 111 42.5 192.5t121 125t184.5 43.5q74 0 139 -21.5t108 -61.5l-43 -93q-49 38 -96.5 54.5t-104.5 16.5q-109 0 -164.5 -64.5t-55.5 -191.5q0 -260 228 -260q68 0 136 19v177
h-152v92h267zM467 919h98l-127 -154h-74l-127 154h98l66 -92z" />
    <glyph glyph-name="Gcircumflex" unicode="&#x11c;" horiz-adv-x="733" 
d="M664 381v-338q-48 -24 -116.5 -38t-139.5 -14q-109 0 -189 43.5t-122.5 125t-42.5 193.5q0 111 42.5 192.5t121 125t184.5 43.5q74 0 139 -21.5t108 -61.5l-43 -93q-49 38 -96.5 54.5t-104.5 16.5q-109 0 -164.5 -64.5t-55.5 -191.5q0 -260 228 -260q68 0 136 19v177
h-152v92h267zM335 765h-98l127 154h74l127 -154h-98l-66 92z" />
    <glyph glyph-name="Gcommaaccent" unicode="&#x122;" horiz-adv-x="733" 
d="M664 381v-338q-48 -24 -116.5 -38t-139.5 -14q-109 0 -189 43.5t-122.5 125t-42.5 193.5q0 111 42.5 192.5t121 125t184.5 43.5q74 0 139 -21.5t108 -61.5l-43 -93q-49 38 -96.5 54.5t-104.5 16.5q-109 0 -164.5 -64.5t-55.5 -191.5q0 -260 228 -260q68 0 136 19v177
h-152v92h267zM473 -68v-62q0 -44 -12.5 -77t-44.5 -62l-47 33q30 30 35 66h-61v102h130z" />
    <glyph glyph-name="Gdotaccent" unicode="&#x120;" horiz-adv-x="733" 
d="M664 381v-338q-48 -24 -116.5 -38t-139.5 -14q-109 0 -189 43.5t-122.5 125t-42.5 193.5q0 111 42.5 192.5t121 125t184.5 43.5q74 0 139 -21.5t108 -61.5l-43 -93q-49 38 -96.5 54.5t-104.5 16.5q-109 0 -164.5 -64.5t-55.5 -191.5q0 -260 228 -260q68 0 136 19v177
h-152v92h267zM332 904h138v-123h-138v123z" />
    <glyph glyph-name="uni1E20" unicode="&#x1e20;" horiz-adv-x="733" 
d="M664 381v-338q-48 -24 -116.5 -38t-139.5 -14q-109 0 -189 43.5t-122.5 125t-42.5 193.5q0 111 42.5 192.5t121 125t184.5 43.5q74 0 139 -21.5t108 -61.5l-43 -93q-49 38 -96.5 54.5t-104.5 16.5q-109 0 -164.5 -64.5t-55.5 -191.5q0 -260 228 -260q68 0 136 19v177
h-152v92h267zM247 802v81h308v-81h-308z" />
    <glyph glyph-name="H" unicode="H" horiz-adv-x="766" 
d="M564 705h126v-705h-126v306h-361v-306h-127v705h127v-295h361v295z" />
    <glyph glyph-name="Hbar" unicode="&#x126;" horiz-adv-x="814" 
d="M802 609v-97h-88v-512h-127v306h-361v-306h-126v512h-88v97h88v96h126v-96h361v96h127v-96h88zM587 410v102h-361v-102h361z" />
    <glyph glyph-name="uni1E2A" unicode="&#x1e2a;" horiz-adv-x="766" 
d="M564 705h126v-705h-126v306h-361v-306h-127v705h127v-295h361v295zM272.5 -186.5q-48.5 34.5 -67.5 103.5l63 26q43 -83 115 -83t115 83l63 -26q-19 -68 -67.5 -103t-110.5 -35t-110.5 34.5z" />
    <glyph glyph-name="Hcircumflex" unicode="&#x124;" horiz-adv-x="766" 
d="M564 705h126v-705h-126v306h-361v-306h-127v705h127v-295h361v295zM317 765h-98l127 154h74l127 -154h-98l-66 92z" />
    <glyph glyph-name="uni1E24" unicode="&#x1e24;" horiz-adv-x="766" 
d="M564 705h126v-705h-126v306h-361v-306h-127v705h127v-295h361v295zM322 -77h122v-116h-122v116z" />
    <glyph glyph-name="I" unicode="I" horiz-adv-x="281" 
d="M76 0v705h129v-705h-129z" />
    <glyph glyph-name="Iacute" unicode="&#xcd;" horiz-adv-x="281" 
d="M76 0v705h129v-705h-129zM180 765h-80l102 154h121z" />
    <glyph glyph-name="Ibreve" unicode="&#x12c;" horiz-adv-x="281" 
d="M76 0v705h129v-705h-129zM33.5 802q-45.5 27 -65.5 81l62 27q19 -32 46.5 -44.5t63.5 -12.5t63.5 12.5t46.5 44.5l62 -27q-20 -54 -65.5 -81t-106.5 -27t-106.5 27z" />
    <glyph glyph-name="Icircumflex" unicode="&#xce;" horiz-adv-x="281" 
d="M76 0v705h129v-705h-129zM74 765h-98l127 154h74l127 -154h-98l-66 92z" />
    <glyph glyph-name="uni0208" unicode="&#x208;" horiz-adv-x="281" 
d="M76 0v705h129v-705h-129zM43 765l-99 154h89l73 -154h-63zM174 765l-99 154h90l72 -154h-63z" />
    <glyph glyph-name="Idieresis" unicode="&#xcf;" horiz-adv-x="281" 
d="M76 0v705h129v-705h-129zM-12 900h120v-115h-120v115zM172 900h120v-115h-120v115z" />
    <glyph glyph-name="uni1E2E" unicode="&#x1e2e;" horiz-adv-x="281" 
d="M76 0v705h129v-705h-129zM-12 900h120v-115h-120v115zM172 900h120v-115h-120v115zM180 925h-80l102 154h121z" />
    <glyph glyph-name="Idotaccent" unicode="&#x130;" horiz-adv-x="281" 
d="M76 0v705h129v-705h-129zM71 904h138v-123h-138v123z" />
    <glyph glyph-name="uni1ECA" unicode="&#x1eca;" horiz-adv-x="281" 
d="M76 0v705h129v-705h-129zM79 -77h122v-116h-122v116z" />
    <glyph glyph-name="Igrave" unicode="&#xcc;" horiz-adv-x="281" 
d="M76 0v705h129v-705h-129zM100 765l-143 154h121l102 -154h-80z" />
    <glyph glyph-name="uni1EC8" unicode="&#x1ec8;" horiz-adv-x="281" 
d="M76 0v705h129v-705h-129zM173 765h-66v20q0 18 11.5 27.5t31.5 19.5q9 4 16 9t7 10q0 17 -36 17q-26 0 -58 -11l-18 49q42 17 90 17q47 0 75 -18t28 -46q0 -19 -12.5 -30t-34.5 -21q-18 -9 -26 -15t-8 -16v-12z" />
    <glyph glyph-name="uni020A" unicode="&#x20a;" horiz-adv-x="281" 
d="M76 0v705h129v-705h-129zM246.5 883q45.5 -27 65.5 -81l-62 -26q-19 31 -46.5 44t-63.5 13t-63.5 -13t-46.5 -44l-62 26q20 54 65.5 81t106.5 27t106.5 -27z" />
    <glyph glyph-name="Imacron" unicode="&#x12a;" horiz-adv-x="281" 
d="M76 0v705h129v-705h-129zM-14 802v81h308v-81h-308z" />
    <glyph glyph-name="Iogonek" unicode="&#x12e;" horiz-adv-x="281" 
d="M241 -174q-42 -21 -94 -21q-54 0 -89 30t-35 79q0 29 13.5 54t39.5 44v693h129v-705h-12q-39 0 -62.5 -19.5t-23.5 -49.5q0 -28 16.5 -42.5t45.5 -14.5q27 0 56 13z" />
    <glyph glyph-name="Itilde" unicode="&#x128;" horiz-adv-x="281" 
d="M76 0v705h129v-705h-129zM-1 877q28 34 73 34q19 0 36 -7.5t43 -22.5q19 -12 32 -18t25 -6q20 0 31 14t13 37h57q0 -65 -28 -99.5t-73 -34.5q-19 0 -37 8t-42 23q-23 13 -34.5 18.5t-22.5 5.5q-20 0 -31 -14.5t-13 -37.5h-57q0 66 28 100z" />
    <glyph glyph-name="J" unicode="J" horiz-adv-x="358" 
d="M-6 95l70 5q89 6 89 98v507h129v-506q0 -94 -49.5 -145.5t-147.5 -57.5l-82 -5z" />
    <glyph glyph-name="Jcircumflex" unicode="&#x134;" horiz-adv-x="358" 
d="M-6 95l70 5q89 6 89 98v507h129v-506q0 -94 -49.5 -145.5t-147.5 -57.5l-82 -5zM151 765h-98l127 154h74l127 -154h-98l-66 92z" />
    <glyph glyph-name="K" unicode="K" horiz-adv-x="660" 
d="M689 0h-157l-327 328v-328h-129v705h129v-315l314 315h154l-341 -339z" />
    <glyph glyph-name="Kcommaaccent" unicode="&#x136;" horiz-adv-x="660" 
d="M689 0h-157l-327 328v-328h-129v705h129v-315l314 315h154l-341 -339zM397 -68v-62q0 -44 -12.5 -77t-44.5 -62l-47 33q30 30 35 66h-61v102h130z" />
    <glyph glyph-name="L" unicode="L" horiz-adv-x="555" 
d="M76 0v705h129v-599h329v-106h-458z" />
    <glyph glyph-name="uni01C7" unicode="&#x1c7;" horiz-adv-x="914" 
d="M76 0v705h129v-599h299v-106h-428zM551 95l69 5q46 3 67.5 25.5t21.5 67.5v512h129v-509q0 -188 -197 -200l-82 -5z" />
    <glyph glyph-name="Lacute" unicode="&#x139;" horiz-adv-x="555" 
d="M76 0v705h129v-599h329v-106h-458zM180 765h-80l102 154h121z" />
    <glyph glyph-name="Lcaron" unicode="&#x13d;" horiz-adv-x="555" 
d="M76 0v705h129v-599h329v-106h-458zM352 513h-61v192h87z" />
    <glyph glyph-name="Lcommaaccent" unicode="&#x13b;" horiz-adv-x="555" 
d="M76 0v705h129v-599h329v-106h-458zM376 -68v-62q0 -44 -12.5 -77t-44.5 -62l-47 33q30 30 35 66h-61v102h130z" />
    <glyph glyph-name="Ldot" unicode="&#x13f;" horiz-adv-x="555" 
d="M76 0v705h129v-599h329v-106h-458zM306 415h140v-124h-140v124z" />
    <glyph glyph-name="uni1E36" unicode="&#x1e36;" horiz-adv-x="555" 
d="M76 0v705h129v-599h329v-106h-458zM250 -77h122v-116h-122v116z" />
    <glyph glyph-name="uni01C8" unicode="&#x1c8;" horiz-adv-x="809" 
d="M76 0v705h129v-599h329v-106h-458zM745 22q0 -103 -48 -150t-160 -54l-47 -3l-9 91l49 4q46 3 68 24.5t22 65.5v489h125v-467zM612 716h138v-123h-138v123z" />
    <glyph glyph-name="uni1E3A" unicode="&#x1e3a;" horiz-adv-x="555" 
d="M76 0v705h129v-599h329v-106h-458zM157 -174v77h308v-77h-308z" />
    <glyph glyph-name="Lslash" unicode="&#x141;" horiz-adv-x="578" 
d="M228 106h330v-106h-458v263l-65 -37l-47 84l112 65v330h128v-256l159 92l48 -85l-207 -119v-231z" />
    <glyph glyph-name="M" unicode="M" horiz-adv-x="841" 
d="M663 705h101v-705h-114v466l-186 -352h-86l-187 347l1 -461h-114v705h102l242 -461z" />
    <glyph glyph-name="uni1E42" unicode="&#x1e42;" horiz-adv-x="841" 
d="M663 705h101v-705h-114v466l-186 -352h-86l-187 347l1 -461h-114v705h102l242 -461zM360 -77h122v-116h-122v116z" />
    <glyph glyph-name="N" unicode="N" horiz-adv-x="747" 
d="M550 705h121v-705h-97l-378 492v-492h-120v705h96l378 -491v491z" />
    <glyph glyph-name="uni01CA" unicode="&#x1ca;" horiz-adv-x="1105" 
d="M550 705h121v-705h-97l-378 492v-492h-120v705h96l378 -491v491zM741 95l70 5q89 6 89 98v507h129v-506q0 -94 -49.5 -145.5t-147.5 -57.5l-82 -5z" />
    <glyph glyph-name="Nacute" unicode="&#x143;" horiz-adv-x="747" 
d="M550 705h121v-705h-97l-378 492v-492h-120v705h96l378 -491v491zM413 765h-80l102 154h121z" />
    <glyph glyph-name="Ncaron" unicode="&#x147;" horiz-adv-x="747" 
d="M550 705h121v-705h-97l-378 492v-492h-120v705h96l378 -491v491zM439 919h98l-127 -154h-74l-127 154h98l66 -92z" />
    <glyph glyph-name="Ncommaaccent" unicode="&#x145;" horiz-adv-x="747" 
d="M550 705h121v-705h-97l-378 492v-492h-120v705h96l378 -491v491zM439 -68v-62q0 -44 -12.5 -77t-44.5 -62l-47 33q30 30 35 66h-61v102h130z" />
    <glyph glyph-name="uni1E44" unicode="&#x1e44;" horiz-adv-x="747" 
d="M550 705h121v-705h-97l-378 492v-492h-120v705h96l378 -491v491zM304 904h138v-123h-138v123z" />
    <glyph glyph-name="uni1E46" unicode="&#x1e46;" horiz-adv-x="747" 
d="M550 705h121v-705h-97l-378 492v-492h-120v705h96l378 -491v491zM313 -77h122v-116h-122v116z" />
    <glyph glyph-name="Eng" unicode="&#x14a;" horiz-adv-x="747" 
d="M671 705v-687q0 -93 -49 -144t-148 -57l-82 -4l-8 98l69 5q47 3 72 28t25 69v19l-354 461v-493h-120v705h96l378 -491v491h121z" />
    <glyph glyph-name="uni01CB" unicode="&#x1cb;" horiz-adv-x="1001" 
d="M550 705h121v-705h-97l-378 492v-492h-120v705h96l378 -491v491zM937 22q0 -103 -48 -150t-160 -54l-47 -3l-9 91l49 4q46 3 68 24.5t22 65.5v489h125v-467zM804 716h138v-123h-138v123z" />
    <glyph glyph-name="uni1E48" unicode="&#x1e48;" horiz-adv-x="747" 
d="M550 705h121v-705h-97l-378 492v-492h-120v705h96l378 -491v491zM220 -174v77h308v-77h-308z" />
    <glyph glyph-name="Ntilde" unicode="&#xd1;" horiz-adv-x="747" 
d="M550 705h121v-705h-97l-378 492v-492h-120v705h96l378 -491v491zM232 877q28 34 73 34q19 0 36 -7.5t43 -22.5q19 -12 32 -18t25 -6q20 0 31 14t13 37h57q0 -65 -28 -99.5t-73 -34.5q-19 0 -37 8t-42 23q-23 13 -34.5 18.5t-22.5 5.5q-20 0 -31 -14.5t-13 -37.5h-57
q0 66 28 100z" />
    <glyph glyph-name="O" unicode="O" horiz-adv-x="779" 
d="M211.5 35q-75.5 44 -116.5 126t-41 192t40.5 191.5t116.5 125.5t179 44t178.5 -44t116 -125.5t40.5 -191.5t-41 -192t-116.5 -126t-177.5 -44q-103 0 -178.5 44zM541.5 161q54.5 67 54.5 192t-54.5 191.5t-151.5 66.5q-98 0 -152.5 -66.5t-54.5 -191.5t54.5 -192
t152.5 -67q97 0 151.5 67z" />
    <glyph glyph-name="Oacute" unicode="&#xd3;" horiz-adv-x="779" 
d="M211.5 35q-75.5 44 -116.5 126t-41 192t40.5 191.5t116.5 125.5t179 44t178.5 -44t116 -125.5t40.5 -191.5t-41 -192t-116.5 -126t-177.5 -44q-103 0 -178.5 44zM541.5 161q54.5 67 54.5 192t-54.5 191.5t-151.5 66.5q-98 0 -152.5 -66.5t-54.5 -191.5t54.5 -192
t152.5 -67q97 0 151.5 67zM429 765h-80l102 154h121z" />
    <glyph glyph-name="Obreve" unicode="&#x14e;" horiz-adv-x="779" 
d="M211.5 35q-75.5 44 -116.5 126t-41 192t40.5 191.5t116.5 125.5t179 44t178.5 -44t116 -125.5t40.5 -191.5t-41 -192t-116.5 -126t-177.5 -44q-103 0 -178.5 44zM541.5 161q54.5 67 54.5 192t-54.5 191.5t-151.5 66.5q-98 0 -152.5 -66.5t-54.5 -191.5t54.5 -192
t152.5 -67q97 0 151.5 67zM282.5 802q-45.5 27 -65.5 81l62 27q19 -32 46.5 -44.5t63.5 -12.5t63.5 12.5t46.5 44.5l62 -27q-20 -54 -65.5 -81t-106.5 -27t-106.5 27z" />
    <glyph glyph-name="Ocircumflex" unicode="&#xd4;" horiz-adv-x="779" 
d="M211.5 35q-75.5 44 -116.5 126t-41 192t40.5 191.5t116.5 125.5t179 44t178.5 -44t116 -125.5t40.5 -191.5t-41 -192t-116.5 -126t-177.5 -44q-103 0 -178.5 44zM541.5 161q54.5 67 54.5 192t-54.5 191.5t-151.5 66.5q-98 0 -152.5 -66.5t-54.5 -191.5t54.5 -192
t152.5 -67q97 0 151.5 67zM323 765h-98l127 154h74l127 -154h-98l-66 92z" />
    <glyph glyph-name="uni1ED0" unicode="&#x1ed0;" horiz-adv-x="779" 
d="M211.5 35q-75.5 44 -116.5 126t-41 192t40.5 191.5t116.5 125.5t179 44t178.5 -44t116 -125.5t40.5 -191.5t-41 -192t-116.5 -126t-177.5 -44q-103 0 -178.5 44zM541.5 161q54.5 67 54.5 192t-54.5 191.5t-151.5 66.5q-98 0 -152.5 -66.5t-54.5 -191.5t54.5 -192
t152.5 -67q97 0 151.5 67zM544 870h-64l79 141h110zM322 765h-97l127 142h74l127 -142h-97l-67 81z" />
    <glyph glyph-name="uni1ED8" unicode="&#x1ed8;" horiz-adv-x="779" 
d="M211.5 35q-75.5 44 -116.5 126t-41 192t40.5 191.5t116.5 125.5t179 44t178.5 -44t116 -125.5t40.5 -191.5t-41 -192t-116.5 -126t-177.5 -44q-103 0 -178.5 44zM541.5 161q54.5 67 54.5 192t-54.5 191.5t-151.5 66.5q-98 0 -152.5 -66.5t-54.5 -191.5t54.5 -192
t152.5 -67q97 0 151.5 67zM329 -77h122v-116h-122v116zM323 765h-98l127 154h74l127 -154h-98l-66 92z" />
    <glyph glyph-name="uni1ED2" unicode="&#x1ed2;" horiz-adv-x="779" 
d="M211.5 35q-75.5 44 -116.5 126t-41 192t40.5 191.5t116.5 125.5t179 44t178.5 -44t116 -125.5t40.5 -191.5t-41 -192t-116.5 -126t-177.5 -44q-103 0 -178.5 44zM541.5 161q54.5 67 54.5 192t-54.5 191.5t-151.5 66.5q-98 0 -152.5 -66.5t-54.5 -191.5t54.5 -192
t152.5 -67q97 0 151.5 67zM522 870l-118 141h110l72 -141h-64zM322 765h-97l127 142h74l127 -142h-97l-67 81z" />
    <glyph glyph-name="uni1ED4" unicode="&#x1ed4;" horiz-adv-x="779" 
d="M211.5 35q-75.5 44 -116.5 126t-41 192t40.5 191.5t116.5 125.5t179 44t178.5 -44t116 -125.5t40.5 -191.5t-41 -192t-116.5 -126t-177.5 -44q-103 0 -178.5 44zM541.5 161q54.5 67 54.5 192t-54.5 191.5t-151.5 66.5q-98 0 -152.5 -66.5t-54.5 -191.5t54.5 -192
t152.5 -67q97 0 151.5 67zM545 871h-66v19q0 19 12.5 28.5t33.5 16.5q8 3 14 6t6 7q0 6 -9 10.5t-27 4.5q-26 0 -59 -11l-17 47q41 18 90 18q47 0 75 -17t28 -44q0 -19 -12 -28.5t-35 -18.5q-18 -8 -26 -14t-8 -16v-8zM322 765h-97l127 142h74l127 -142h-97l-67 81z" />
    <glyph glyph-name="uni1ED6" unicode="&#x1ed6;" horiz-adv-x="779" 
d="M211.5 35q-75.5 44 -116.5 126t-41 192t40.5 191.5t116.5 125.5t179 44t178.5 -44t116 -125.5t40.5 -191.5t-41 -192t-116.5 -126t-177.5 -44q-103 0 -178.5 44zM541.5 161q54.5 67 54.5 192t-54.5 191.5t-151.5 66.5q-98 0 -152.5 -66.5t-54.5 -191.5t54.5 -192
t152.5 -67q97 0 151.5 67zM249 996.5q29 29.5 72 29.5q19 0 36.5 -5.5t42.5 -15.5q15 -6 30.5 -11t26.5 -5q20 0 31 9.5t13 26.5h57q0 -44 -29 -73.5t-72 -29.5q-19 0 -36.5 5.5t-42.5 15.5q-15 6 -30.5 11t-26.5 5q-20 0 -31 -9.5t-13 -26.5h-57q0 44 29 73.5zM322 765h-97
l127 142h74l127 -142h-97l-67 81z" />
    <glyph glyph-name="uni020C" unicode="&#x20c;" horiz-adv-x="779" 
d="M211.5 35q-75.5 44 -116.5 126t-41 192t40.5 191.5t116.5 125.5t179 44t178.5 -44t116 -125.5t40.5 -191.5t-41 -192t-116.5 -126t-177.5 -44q-103 0 -178.5 44zM541.5 161q54.5 67 54.5 192t-54.5 191.5t-151.5 66.5q-98 0 -152.5 -66.5t-54.5 -191.5t54.5 -192
t152.5 -67q97 0 151.5 67zM292 765l-99 154h89l73 -154h-63zM423 765l-99 154h90l72 -154h-63z" />
    <glyph glyph-name="Odieresis" unicode="&#xd6;" horiz-adv-x="779" 
d="M211.5 35q-75.5 44 -116.5 126t-41 192t40.5 191.5t116.5 125.5t179 44t178.5 -44t116 -125.5t40.5 -191.5t-41 -192t-116.5 -126t-177.5 -44q-103 0 -178.5 44zM541.5 161q54.5 67 54.5 192t-54.5 191.5t-151.5 66.5q-98 0 -152.5 -66.5t-54.5 -191.5t54.5 -192
t152.5 -67q97 0 151.5 67zM237 900h120v-115h-120v115zM421 900h120v-115h-120v115z" />
    <glyph glyph-name="uni022A" unicode="&#x22a;" horiz-adv-x="779" 
d="M211.5 35q-75.5 44 -116.5 126t-41 192t40.5 191.5t116.5 125.5t179 44t178.5 -44t116 -125.5t40.5 -191.5t-41 -192t-116.5 -126t-177.5 -44q-103 0 -178.5 44zM541.5 161q54.5 67 54.5 192t-54.5 191.5t-151.5 66.5q-98 0 -152.5 -66.5t-54.5 -191.5t54.5 -192
t152.5 -67q97 0 151.5 67zM237 900h120v-115h-120v115zM421 900h120v-115h-120v115zM235 962v81h308v-81h-308z" />
    <glyph glyph-name="uni0230" unicode="&#x230;" horiz-adv-x="779" 
d="M211.5 35q-75.5 44 -116.5 126t-41 192t40.5 191.5t116.5 125.5t179 44t178.5 -44t116 -125.5t40.5 -191.5t-41 -192t-116.5 -126t-177.5 -44q-103 0 -178.5 44zM541.5 161q54.5 67 54.5 192t-54.5 191.5t-151.5 66.5q-98 0 -152.5 -66.5t-54.5 -191.5t54.5 -192
t152.5 -67q97 0 151.5 67zM320 904h138v-123h-138v123zM235 962v81h308v-81h-308z" />
    <glyph glyph-name="uni1ECC" unicode="&#x1ecc;" horiz-adv-x="779" 
d="M211.5 35q-75.5 44 -116.5 126t-41 192t40.5 191.5t116.5 125.5t179 44t178.5 -44t116 -125.5t40.5 -191.5t-41 -192t-116.5 -126t-177.5 -44q-103 0 -178.5 44zM541.5 161q54.5 67 54.5 192t-54.5 191.5t-151.5 66.5q-98 0 -152.5 -66.5t-54.5 -191.5t54.5 -192
t152.5 -67q97 0 151.5 67zM329 -77h122v-116h-122v116z" />
    <glyph glyph-name="Ograve" unicode="&#xd2;" horiz-adv-x="779" 
d="M211.5 35q-75.5 44 -116.5 126t-41 192t40.5 191.5t116.5 125.5t179 44t178.5 -44t116 -125.5t40.5 -191.5t-41 -192t-116.5 -126t-177.5 -44q-103 0 -178.5 44zM541.5 161q54.5 67 54.5 192t-54.5 191.5t-151.5 66.5q-98 0 -152.5 -66.5t-54.5 -191.5t54.5 -192
t152.5 -67q97 0 151.5 67zM349 765l-143 154h121l102 -154h-80z" />
    <glyph glyph-name="uni1ECE" unicode="&#x1ece;" horiz-adv-x="779" 
d="M211.5 35q-75.5 44 -116.5 126t-41 192t40.5 191.5t116.5 125.5t179 44t178.5 -44t116 -125.5t40.5 -191.5t-41 -192t-116.5 -126t-177.5 -44q-103 0 -178.5 44zM541.5 161q54.5 67 54.5 192t-54.5 191.5t-151.5 66.5q-98 0 -152.5 -66.5t-54.5 -191.5t54.5 -192
t152.5 -67q97 0 151.5 67zM422 765h-66v20q0 18 11.5 27.5t31.5 19.5q9 4 16 9t7 10q0 17 -36 17q-26 0 -58 -11l-18 49q42 17 90 17q47 0 75 -18t28 -46q0 -19 -12.5 -30t-34.5 -21q-18 -9 -26 -15t-8 -16v-12z" />
    <glyph glyph-name="Ohorn" unicode="&#x1a0;" horiz-adv-x="779" 
d="M692.5 692.5q-32.5 -40.5 -88.5 -49.5q59 -47 90 -120.5t31 -169.5q0 -110 -41 -192t-116.5 -126t-177.5 -44q-103 0 -178.5 44t-116.5 126t-41 192t40.5 191.5t117 125.5t180.5 44q33 0 68 -5q40 -4 61 -4q52 0 73.5 24t21.5 81v18h109v-34q0 -61 -32.5 -101.5z
M541.5 161q54.5 67 54.5 192t-54.5 191.5t-151.5 66.5q-98 0 -152.5 -66.5t-54.5 -191.5t54.5 -192t152.5 -67q97 0 151.5 67z" />
    <glyph glyph-name="uni1EDA" unicode="&#x1eda;" horiz-adv-x="779" 
d="M692.5 692.5q-32.5 -40.5 -88.5 -49.5q59 -47 90 -120.5t31 -169.5q0 -110 -41 -192t-116.5 -126t-177.5 -44q-103 0 -178.5 44t-116.5 126t-41 192t40.5 191.5t117 125.5t180.5 44q33 0 68 -5q40 -4 61 -4q52 0 73.5 24t21.5 81v18h109v-34q0 -61 -32.5 -101.5z
M541.5 161q54.5 67 54.5 192t-54.5 191.5t-151.5 66.5q-98 0 -152.5 -66.5t-54.5 -191.5t54.5 -192t152.5 -67q97 0 151.5 67zM429 765h-80l102 154h121z" />
    <glyph glyph-name="uni1EE2" unicode="&#x1ee2;" horiz-adv-x="779" 
d="M692.5 692.5q-32.5 -40.5 -88.5 -49.5q59 -47 90 -120.5t31 -169.5q0 -110 -41 -192t-116.5 -126t-177.5 -44q-103 0 -178.5 44t-116.5 126t-41 192t40.5 191.5t117 125.5t180.5 44q33 0 68 -5q40 -4 61 -4q52 0 73.5 24t21.5 81v18h109v-34q0 -61 -32.5 -101.5z
M541.5 161q54.5 67 54.5 192t-54.5 191.5t-151.5 66.5q-98 0 -152.5 -66.5t-54.5 -191.5t54.5 -192t152.5 -67q97 0 151.5 67zM329 -77h122v-116h-122v116z" />
    <glyph glyph-name="uni1EDC" unicode="&#x1edc;" horiz-adv-x="779" 
d="M692.5 692.5q-32.5 -40.5 -88.5 -49.5q59 -47 90 -120.5t31 -169.5q0 -110 -41 -192t-116.5 -126t-177.5 -44q-103 0 -178.5 44t-116.5 126t-41 192t40.5 191.5t117 125.5t180.5 44q33 0 68 -5q40 -4 61 -4q52 0 73.5 24t21.5 81v18h109v-34q0 -61 -32.5 -101.5z
M541.5 161q54.5 67 54.5 192t-54.5 191.5t-151.5 66.5q-98 0 -152.5 -66.5t-54.5 -191.5t54.5 -192t152.5 -67q97 0 151.5 67zM349 765l-143 154h121l102 -154h-80z" />
    <glyph glyph-name="uni1EDE" unicode="&#x1ede;" horiz-adv-x="779" 
d="M692.5 692.5q-32.5 -40.5 -88.5 -49.5q59 -47 90 -120.5t31 -169.5q0 -110 -41 -192t-116.5 -126t-177.5 -44q-103 0 -178.5 44t-116.5 126t-41 192t40.5 191.5t117 125.5t180.5 44q33 0 68 -5q40 -4 61 -4q52 0 73.5 24t21.5 81v18h109v-34q0 -61 -32.5 -101.5z
M541.5 161q54.5 67 54.5 192t-54.5 191.5t-151.5 66.5q-98 0 -152.5 -66.5t-54.5 -191.5t54.5 -192t152.5 -67q97 0 151.5 67zM422 765h-66v20q0 18 11.5 27.5t31.5 19.5q9 4 16 9t7 10q0 17 -36 17q-26 0 -58 -11l-18 49q42 17 90 17q47 0 75 -18t28 -46q0 -19 -12.5 -30
t-34.5 -21q-18 -9 -26 -15t-8 -16v-12z" />
    <glyph glyph-name="uni1EE0" unicode="&#x1ee0;" horiz-adv-x="779" 
d="M692.5 692.5q-32.5 -40.5 -88.5 -49.5q59 -47 90 -120.5t31 -169.5q0 -110 -41 -192t-116.5 -126t-177.5 -44q-103 0 -178.5 44t-116.5 126t-41 192t40.5 191.5t117 125.5t180.5 44q33 0 68 -5q40 -4 61 -4q52 0 73.5 24t21.5 81v18h109v-34q0 -61 -32.5 -101.5z
M541.5 161q54.5 67 54.5 192t-54.5 191.5t-151.5 66.5q-98 0 -152.5 -66.5t-54.5 -191.5t54.5 -192t152.5 -67q97 0 151.5 67zM248 877q28 34 73 34q19 0 36 -7.5t43 -22.5q19 -12 32 -18t25 -6q20 0 31 14t13 37h57q0 -65 -28 -99.5t-73 -34.5q-19 0 -37 8t-42 23
q-23 13 -34.5 18.5t-22.5 5.5q-20 0 -31 -14.5t-13 -37.5h-57q0 66 28 100z" />
    <glyph glyph-name="Ohungarumlaut" unicode="&#x150;" horiz-adv-x="779" 
d="M211.5 35q-75.5 44 -116.5 126t-41 192t40.5 191.5t116.5 125.5t179 44t178.5 -44t116 -125.5t40.5 -191.5t-41 -192t-116.5 -126t-177.5 -44q-103 0 -178.5 44zM541.5 161q54.5 67 54.5 192t-54.5 191.5t-151.5 66.5q-98 0 -152.5 -66.5t-54.5 -191.5t54.5 -192
t152.5 -67q97 0 151.5 67zM551 919l-99 -154h-126l72 154h153z" />
    <glyph glyph-name="uni020E" unicode="&#x20e;" horiz-adv-x="779" 
d="M211.5 35q-75.5 44 -116.5 126t-41 192t40.5 191.5t116.5 125.5t179 44t178.5 -44t116 -125.5t40.5 -191.5t-41 -192t-116.5 -126t-177.5 -44q-103 0 -178.5 44zM541.5 161q54.5 67 54.5 192t-54.5 191.5t-151.5 66.5q-98 0 -152.5 -66.5t-54.5 -191.5t54.5 -192
t152.5 -67q97 0 151.5 67zM495.5 883q45.5 -27 65.5 -81l-62 -26q-19 31 -46.5 44t-63.5 13t-63.5 -13t-46.5 -44l-62 26q20 54 65.5 81t106.5 27t106.5 -27z" />
    <glyph glyph-name="Omacron" unicode="&#x14c;" horiz-adv-x="779" 
d="M211.5 35q-75.5 44 -116.5 126t-41 192t40.5 191.5t116.5 125.5t179 44t178.5 -44t116 -125.5t40.5 -191.5t-41 -192t-116.5 -126t-177.5 -44q-103 0 -178.5 44zM541.5 161q54.5 67 54.5 192t-54.5 191.5t-151.5 66.5q-98 0 -152.5 -66.5t-54.5 -191.5t54.5 -192
t152.5 -67q97 0 151.5 67zM235 802v81h308v-81h-308z" />
    <glyph glyph-name="uni1E52" unicode="&#x1e52;" horiz-adv-x="779" 
d="M211.5 35q-75.5 44 -116.5 126t-41 192t40.5 191.5t116.5 125.5t179 44t178.5 -44t116 -125.5t40.5 -191.5t-41 -192t-116.5 -126t-177.5 -44q-103 0 -178.5 44zM541.5 161q54.5 67 54.5 192t-54.5 191.5t-151.5 66.5q-98 0 -152.5 -66.5t-54.5 -191.5t54.5 -192
t152.5 -67q97 0 151.5 67zM235 802v81h308v-81h-308zM429 925h-80l102 154h121z" />
    <glyph glyph-name="uni1E50" unicode="&#x1e50;" horiz-adv-x="779" 
d="M211.5 35q-75.5 44 -116.5 126t-41 192t40.5 191.5t116.5 125.5t179 44t178.5 -44t116 -125.5t40.5 -191.5t-41 -192t-116.5 -126t-177.5 -44q-103 0 -178.5 44zM541.5 161q54.5 67 54.5 192t-54.5 191.5t-151.5 66.5q-98 0 -152.5 -66.5t-54.5 -191.5t54.5 -192
t152.5 -67q97 0 151.5 67zM235 802v81h308v-81h-308zM349 925l-143 154h121l102 -154h-80z" />
    <glyph glyph-name="uni01EA" unicode="&#x1ea;" horiz-adv-x="779" 
d="M428 -69q0 -28 16 -42.5t45 -14.5q27 0 56 13l17 -61q-42 -21 -95 -21q-55 0 -89.5 30.5t-34.5 77.5q0 45 31 79q-98 3 -170 47.5t-111 125t-39 188.5q0 110 41 191.5t116.5 125.5t178.5 44q102 0 177.5 -44t116.5 -125.5t41 -191.5q0 -135 -60 -226t-170 -123
q-67 -19 -67 -73zM541.5 161q54.5 67 54.5 192t-54.5 191.5t-151.5 66.5q-98 0 -152.5 -66.5t-54.5 -191.5t54.5 -192t152.5 -67q97 0 151.5 67z" />
    <glyph glyph-name="Oslash" unicode="&#xd8;" horiz-adv-x="779" 
d="M696 518.5q29 -72.5 29 -165.5q0 -110 -41 -192t-116.5 -126t-177.5 -44q-77 0 -140 26l-45 -77l-83 50l45 77q-55 48 -84 120.5t-29 165.5q0 110 40.5 191.5t116.5 125.5t179 44q75 0 139 -25l44 76l84 -50l-45 -76q55 -48 84 -120.5zM228 173l246 422q-36 16 -84 16
q-98 0 -152.5 -66.5t-54.5 -191.5q0 -113 45 -180zM541.5 161q54.5 67 54.5 192q0 113 -45 180l-247 -423q36 -16 86 -16q97 0 151.5 67z" />
    <glyph glyph-name="Oslashacute" unicode="&#x1fe;" horiz-adv-x="779" 
d="M696 518.5q29 -72.5 29 -165.5q0 -110 -41 -192t-116.5 -126t-177.5 -44q-77 0 -140 26l-45 -77l-83 50l45 77q-55 48 -84 120.5t-29 165.5q0 110 40.5 191.5t116.5 125.5t179 44q75 0 139 -25l44 76l84 -50l-45 -76q55 -48 84 -120.5zM228 173l246 422q-36 16 -84 16
q-98 0 -152.5 -66.5t-54.5 -191.5q0 -113 45 -180zM541.5 161q54.5 67 54.5 192q0 113 -45 180l-247 -423q36 -16 86 -16q97 0 151.5 67zM429 765h-80l102 154h121z" />
    <glyph glyph-name="Otilde" unicode="&#xd5;" horiz-adv-x="779" 
d="M211.5 35q-75.5 44 -116.5 126t-41 192t40.5 191.5t116.5 125.5t179 44t178.5 -44t116 -125.5t40.5 -191.5t-41 -192t-116.5 -126t-177.5 -44q-103 0 -178.5 44zM541.5 161q54.5 67 54.5 192t-54.5 191.5t-151.5 66.5q-98 0 -152.5 -66.5t-54.5 -191.5t54.5 -192
t152.5 -67q97 0 151.5 67zM248 877q28 34 73 34q19 0 36 -7.5t43 -22.5q19 -12 32 -18t25 -6q20 0 31 14t13 37h57q0 -65 -28 -99.5t-73 -34.5q-19 0 -37 8t-42 23q-23 13 -34.5 18.5t-22.5 5.5q-20 0 -31 -14.5t-13 -37.5h-57q0 66 28 100z" />
    <glyph glyph-name="uni1E4C" unicode="&#x1e4c;" horiz-adv-x="779" 
d="M211.5 35q-75.5 44 -116.5 126t-41 192t40.5 191.5t116.5 125.5t179 44t178.5 -44t116 -125.5t40.5 -191.5t-41 -192t-116.5 -126t-177.5 -44q-103 0 -178.5 44zM541.5 161q54.5 67 54.5 192t-54.5 191.5t-151.5 66.5q-98 0 -152.5 -66.5t-54.5 -191.5t54.5 -192
t152.5 -67q97 0 151.5 67zM248 877q28 34 73 34q19 0 36 -7.5t43 -22.5q19 -12 32 -18t25 -6q20 0 31 14t13 37h57q0 -65 -28 -99.5t-73 -34.5q-19 0 -37 8t-42 23q-23 13 -34.5 18.5t-22.5 5.5q-20 0 -31 -14.5t-13 -37.5h-57q0 66 28 100zM429 925h-80l102 154h121z" />
    <glyph glyph-name="uni1E4E" unicode="&#x1e4e;" horiz-adv-x="779" 
d="M211.5 35q-75.5 44 -116.5 126t-41 192t40.5 191.5t116.5 125.5t179 44t178.5 -44t116 -125.5t40.5 -191.5t-41 -192t-116.5 -126t-177.5 -44q-103 0 -178.5 44zM541.5 161q54.5 67 54.5 192t-54.5 191.5t-151.5 66.5q-98 0 -152.5 -66.5t-54.5 -191.5t54.5 -192
t152.5 -67q97 0 151.5 67zM248 877q28 34 73 34q19 0 36 -7.5t43 -22.5q19 -12 32 -18t25 -6q20 0 31 14t13 37h57q0 -65 -28 -99.5t-73 -34.5q-19 0 -37 8t-42 23q-23 13 -34.5 18.5t-22.5 5.5q-20 0 -31 -14.5t-13 -37.5h-57q0 66 28 100zM237 1060h120v-115h-120v115z
M421 1060h120v-115h-120v115z" />
    <glyph glyph-name="uni022C" unicode="&#x22c;" horiz-adv-x="779" 
d="M211.5 35q-75.5 44 -116.5 126t-41 192t40.5 191.5t116.5 125.5t179 44t178.5 -44t116 -125.5t40.5 -191.5t-41 -192t-116.5 -126t-177.5 -44q-103 0 -178.5 44zM541.5 161q54.5 67 54.5 192t-54.5 191.5t-151.5 66.5q-98 0 -152.5 -66.5t-54.5 -191.5t54.5 -192
t152.5 -67q97 0 151.5 67zM248 877q28 34 73 34q19 0 36 -7.5t43 -22.5q19 -12 32 -18t25 -6q20 0 31 14t13 37h57q0 -65 -28 -99.5t-73 -34.5q-19 0 -37 8t-42 23q-23 13 -34.5 18.5t-22.5 5.5q-20 0 -31 -14.5t-13 -37.5h-57q0 66 28 100zM235 962v81h308v-81h-308z" />
    <glyph glyph-name="OE" unicode="&#x152;" horiz-adv-x="1045" 
d="M149.5 93q-95.5 93 -95.5 260t95.5 259.5t268.5 92.5h585v-102h-347v-194h326v-101h-326v-206h346v-102h-584q-173 0 -268.5 93zM531 102v501h-105q-120 0 -181.5 -62.5t-61.5 -187.5q0 -251 243 -251h105z" />
    <glyph glyph-name="P" unicode="P" horiz-adv-x="660" 
d="M76 705h308q113 0 176 -56.5t63 -158.5t-63 -159t-176 -57h-179v-274h-129v705zM368 373q133 0 133 116q0 59 -33 87.5t-100 28.5h-163v-232h163z" />
    <glyph glyph-name="Thorn" unicode="&#xde;" horiz-adv-x="660" 
d="M561 505.5q62 -52.5 62 -146.5q0 -95 -62.5 -148t-173.5 -53h-184v-158h-127v705h127v-147h184q112 0 174 -52.5zM468.5 282.5q32.5 24.5 32.5 76.5q0 51 -32.5 75t-100.5 24h-165v-200h165q68 0 100.5 24.5z" />
    <glyph glyph-name="Q" unicode="Q" horiz-adv-x="779" 
d="M583 0.5q18 -15.5 35 -43.5l72 -117l-108 -52l-97 157q-28 46 -95 46q-103 0 -178.5 44t-116.5 126t-41 192t41 191.5t116.5 125.5t178.5 44q102 0 177.5 -44t116.5 -125.5t41 -191.5q0 -120 -47.5 -205.5t-136.5 -124.5q24 -7 42 -22.5zM541.5 161q54.5 67 54.5 192
t-54.5 191.5t-151.5 66.5q-98 0 -152.5 -66.5t-54.5 -191.5t54.5 -192t152.5 -67q97 0 151.5 67z" />
    <glyph glyph-name="R" unicode="R" horiz-adv-x="695" 
d="M667 0h-140l-121 225q-17 32 -42 45t-63 13h-98v-283h-127v705h312q120 0 182.5 -53.5t62.5 -154.5q0 -81 -45.5 -133.5t-128.5 -68.5q56 -15 90 -79zM477 409.5q34 27.5 34 84.5q0 58 -34 84.5t-107 26.5h-168v-223h168q73 0 107 27.5z" />
    <glyph glyph-name="Racute" unicode="&#x154;" horiz-adv-x="695" 
d="M667 0h-140l-121 225q-17 32 -42 45t-63 13h-98v-283h-127v705h312q120 0 182.5 -53.5t62.5 -154.5q0 -81 -45.5 -133.5t-128.5 -68.5q56 -15 90 -79zM477 409.5q34 27.5 34 84.5q0 58 -34 84.5t-107 26.5h-168v-223h168q73 0 107 27.5zM388 765h-80l102 154h121z" />
    <glyph glyph-name="Rcaron" unicode="&#x158;" horiz-adv-x="695" 
d="M667 0h-140l-121 225q-17 32 -42 45t-63 13h-98v-283h-127v705h312q120 0 182.5 -53.5t62.5 -154.5q0 -81 -45.5 -133.5t-128.5 -68.5q56 -15 90 -79zM477 409.5q34 27.5 34 84.5q0 58 -34 84.5t-107 26.5h-168v-223h168q73 0 107 27.5zM414 919h98l-127 -154h-74
l-127 154h98l66 -92z" />
    <glyph glyph-name="Rcommaaccent" unicode="&#x156;" horiz-adv-x="695" 
d="M667 0h-140l-121 225q-17 32 -42 45t-63 13h-98v-283h-127v705h312q120 0 182.5 -53.5t62.5 -154.5q0 -81 -45.5 -133.5t-128.5 -68.5q56 -15 90 -79zM477 409.5q34 27.5 34 84.5q0 58 -34 84.5t-107 26.5h-168v-223h168q73 0 107 27.5zM414 -68v-62q0 -44 -12.5 -77
t-44.5 -62l-47 33q30 30 35 66h-61v102h130z" />
    <glyph glyph-name="uni0210" unicode="&#x210;" horiz-adv-x="695" 
d="M667 0h-140l-121 225q-17 32 -42 45t-63 13h-98v-283h-127v705h312q120 0 182.5 -53.5t62.5 -154.5q0 -81 -45.5 -133.5t-128.5 -68.5q56 -15 90 -79zM477 409.5q34 27.5 34 84.5q0 58 -34 84.5t-107 26.5h-168v-223h168q73 0 107 27.5zM251 765l-99 154h89l73 -154h-63z
M382 765l-99 154h90l72 -154h-63z" />
    <glyph glyph-name="uni1E5A" unicode="&#x1e5a;" horiz-adv-x="695" 
d="M667 0h-140l-121 225q-17 32 -42 45t-63 13h-98v-283h-127v705h312q120 0 182.5 -53.5t62.5 -154.5q0 -81 -45.5 -133.5t-128.5 -68.5q56 -15 90 -79zM477 409.5q34 27.5 34 84.5q0 58 -34 84.5t-107 26.5h-168v-223h168q73 0 107 27.5zM288 -77h122v-116h-122v116z" />
    <glyph glyph-name="uni0212" unicode="&#x212;" horiz-adv-x="695" 
d="M667 0h-140l-121 225q-17 32 -42 45t-63 13h-98v-283h-127v705h312q120 0 182.5 -53.5t62.5 -154.5q0 -81 -45.5 -133.5t-128.5 -68.5q56 -15 90 -79zM477 409.5q34 27.5 34 84.5q0 58 -34 84.5t-107 26.5h-168v-223h168q73 0 107 27.5zM454.5 883q45.5 -27 65.5 -81
l-62 -26q-19 31 -46.5 44t-63.5 13t-63.5 -13t-46.5 -44l-62 26q20 54 65.5 81t106.5 27t106.5 -27z" />
    <glyph glyph-name="uni1E5E" unicode="&#x1e5e;" horiz-adv-x="695" 
d="M667 0h-140l-121 225q-17 32 -42 45t-63 13h-98v-283h-127v705h312q120 0 182.5 -53.5t62.5 -154.5q0 -81 -45.5 -133.5t-128.5 -68.5q56 -15 90 -79zM477 409.5q34 27.5 34 84.5q0 58 -34 84.5t-107 26.5h-168v-223h168q73 0 107 27.5zM195 -174v77h308v-77h-308z" />
    <glyph glyph-name="S" unicode="S" horiz-adv-x="638" 
d="M163 13q-71 22 -120 62l43 94q51 -39 107.5 -57t122.5 -18q73 0 112.5 25.5t39.5 71.5q0 40 -36.5 61t-121.5 40q-88 19 -143 44t-83 64t-28 99q0 62 34 111t96 76.5t143 27.5q74 0 141 -22.5t110 -61.5l-43 -94q-94 75 -208 75q-68 0 -107.5 -27.5t-39.5 -76.5
q0 -41 35 -63t119 -41q89 -20 144.5 -44.5t85 -62.5t29.5 -96q0 -63 -33.5 -110.5t-97 -73t-149.5 -25.5q-81 0 -152 22z" />
    <glyph glyph-name="Sacute" unicode="&#x15a;" horiz-adv-x="638" 
d="M163 13q-71 22 -120 62l43 94q51 -39 107.5 -57t122.5 -18q73 0 112.5 25.5t39.5 71.5q0 40 -36.5 61t-121.5 40q-88 19 -143 44t-83 64t-28 99q0 62 34 111t96 76.5t143 27.5q74 0 141 -22.5t110 -61.5l-43 -94q-94 75 -208 75q-68 0 -107.5 -27.5t-39.5 -76.5
q0 -41 35 -63t119 -41q89 -20 144.5 -44.5t85 -62.5t29.5 -96q0 -63 -33.5 -110.5t-97 -73t-149.5 -25.5q-81 0 -152 22zM361 765h-80l102 154h121z" />
    <glyph glyph-name="uni1E64" unicode="&#x1e64;" horiz-adv-x="638" 
d="M163 13q-71 22 -120 62l43 94q51 -39 107.5 -57t122.5 -18q73 0 112.5 25.5t39.5 71.5q0 40 -36.5 61t-121.5 40q-88 19 -143 44t-83 64t-28 99q0 62 34 111t96 76.5t143 27.5q74 0 141 -22.5t110 -61.5l-43 -94q-94 75 -208 75q-68 0 -107.5 -27.5t-39.5 -76.5
q0 -41 35 -63t119 -41q89 -20 144.5 -44.5t85 -62.5t29.5 -96q0 -63 -33.5 -110.5t-97 -73t-149.5 -25.5q-81 0 -152 22zM380 765h-80l102 154h121zM134 918h138v-123h-138v123z" />
    <glyph glyph-name="Scaron" unicode="&#x160;" horiz-adv-x="638" 
d="M163 13q-71 22 -120 62l43 94q51 -39 107.5 -57t122.5 -18q73 0 112.5 25.5t39.5 71.5q0 40 -36.5 61t-121.5 40q-88 19 -143 44t-83 64t-28 99q0 62 34 111t96 76.5t143 27.5q74 0 141 -22.5t110 -61.5l-43 -94q-94 75 -208 75q-68 0 -107.5 -27.5t-39.5 -76.5
q0 -41 35 -63t119 -41q89 -20 144.5 -44.5t85 -62.5t29.5 -96q0 -63 -33.5 -110.5t-97 -73t-149.5 -25.5q-81 0 -152 22zM387 919h98l-127 -154h-74l-127 154h98l66 -92z" />
    <glyph glyph-name="uni1E66" unicode="&#x1e66;" horiz-adv-x="638" 
d="M163 13q-71 22 -120 62l43 94q51 -39 107.5 -57t122.5 -18q73 0 112.5 25.5t39.5 71.5q0 40 -36.5 61t-121.5 40q-88 19 -143 44t-83 64t-28 99q0 62 34 111t96 76.5t143 27.5q74 0 141 -22.5t110 -61.5l-43 -94q-94 75 -208 75q-68 0 -107.5 -27.5t-39.5 -76.5
q0 -41 35 -63t119 -41q89 -20 144.5 -44.5t85 -62.5t29.5 -96q0 -63 -33.5 -110.5t-97 -73t-149.5 -25.5q-81 0 -152 22zM387 919h98l-127 -154h-74l-127 154h98l66 -92zM252 1064h138v-123h-138v123z" />
    <glyph glyph-name="Scedilla" unicode="&#x15e;" horiz-adv-x="638" 
d="M528.5 54.5q-66.5 -55.5 -183.5 -62.5l-4 -33q6 1 17 1q36 0 58 -18t22 -51q0 -38 -33.5 -62t-93.5 -24q-22 0 -47.5 4.5t-44.5 13.5l12 52q43 -14 78 -14q23 0 36 7.5t13 22.5q0 10 -8.5 16t-24.5 6q-14 0 -40 -7l-19 19l8 68q-69 5 -128.5 26t-102.5 56l43 94
q51 -39 107.5 -57t122.5 -18q73 0 112.5 25.5t39.5 71.5q0 40 -36.5 61t-121.5 40q-88 19 -143 44t-83 64t-28 99q0 62 34 111t96 76.5t143 27.5q74 0 141 -22.5t110 -61.5l-43 -94q-94 75 -208 75q-68 0 -107.5 -27.5t-39.5 -76.5q0 -41 35 -63t119 -41q89 -20 144.5 -44.5
t85 -62.5t29.5 -96q0 -90 -66.5 -145.5z" />
    <glyph glyph-name="Scircumflex" unicode="&#x15c;" horiz-adv-x="638" 
d="M163 13q-71 22 -120 62l43 94q51 -39 107.5 -57t122.5 -18q73 0 112.5 25.5t39.5 71.5q0 40 -36.5 61t-121.5 40q-88 19 -143 44t-83 64t-28 99q0 62 34 111t96 76.5t143 27.5q74 0 141 -22.5t110 -61.5l-43 -94q-94 75 -208 75q-68 0 -107.5 -27.5t-39.5 -76.5
q0 -41 35 -63t119 -41q89 -20 144.5 -44.5t85 -62.5t29.5 -96q0 -63 -33.5 -110.5t-97 -73t-149.5 -25.5q-81 0 -152 22zM255 765h-98l127 154h74l127 -154h-98l-66 92z" />
    <glyph glyph-name="Scommaaccent" unicode="&#x218;" horiz-adv-x="638" 
d="M163 13q-71 22 -120 62l43 94q51 -39 107.5 -57t122.5 -18q73 0 112.5 25.5t39.5 71.5q0 40 -36.5 61t-121.5 40q-88 19 -143 44t-83 64t-28 99q0 62 34 111t96 76.5t143 27.5q74 0 141 -22.5t110 -61.5l-43 -94q-94 75 -208 75q-68 0 -107.5 -27.5t-39.5 -76.5
q0 -41 35 -63t119 -41q89 -20 144.5 -44.5t85 -62.5t29.5 -96q0 -63 -33.5 -110.5t-97 -73t-149.5 -25.5q-81 0 -152 22zM385 -68v-62q0 -44 -12.5 -77t-44.5 -62l-47 33q30 30 35 66h-61v102h130z" />
    <glyph glyph-name="uni1E60" unicode="&#x1e60;" horiz-adv-x="638" 
d="M163 13q-71 22 -120 62l43 94q51 -39 107.5 -57t122.5 -18q73 0 112.5 25.5t39.5 71.5q0 40 -36.5 61t-121.5 40q-88 19 -143 44t-83 64t-28 99q0 62 34 111t96 76.5t143 27.5q74 0 141 -22.5t110 -61.5l-43 -94q-94 75 -208 75q-68 0 -107.5 -27.5t-39.5 -76.5
q0 -41 35 -63t119 -41q89 -20 144.5 -44.5t85 -62.5t29.5 -96q0 -63 -33.5 -110.5t-97 -73t-149.5 -25.5q-81 0 -152 22zM252 904h138v-123h-138v123z" />
    <glyph glyph-name="uni1E62" unicode="&#x1e62;" horiz-adv-x="638" 
d="M163 13q-71 22 -120 62l43 94q51 -39 107.5 -57t122.5 -18q73 0 112.5 25.5t39.5 71.5q0 40 -36.5 61t-121.5 40q-88 19 -143 44t-83 64t-28 99q0 62 34 111t96 76.5t143 27.5q74 0 141 -22.5t110 -61.5l-43 -94q-94 75 -208 75q-68 0 -107.5 -27.5t-39.5 -76.5
q0 -41 35 -63t119 -41q89 -20 144.5 -44.5t85 -62.5t29.5 -96q0 -63 -33.5 -110.5t-97 -73t-149.5 -25.5q-81 0 -152 22zM259 -77h122v-116h-122v116z" />
    <glyph glyph-name="uni1E68" unicode="&#x1e68;" horiz-adv-x="638" 
d="M163 13q-71 22 -120 62l43 94q51 -39 107.5 -57t122.5 -18q73 0 112.5 25.5t39.5 71.5q0 40 -36.5 61t-121.5 40q-88 19 -143 44t-83 64t-28 99q0 62 34 111t96 76.5t143 27.5q74 0 141 -22.5t110 -61.5l-43 -94q-94 75 -208 75q-68 0 -107.5 -27.5t-39.5 -76.5
q0 -41 35 -63t119 -41q89 -20 144.5 -44.5t85 -62.5t29.5 -96q0 -63 -33.5 -110.5t-97 -73t-149.5 -25.5q-81 0 -152 22zM259 -77h122v-116h-122v116zM252 904h138v-123h-138v123z" />
    <glyph glyph-name="uni1E9E" unicode="&#x1e9e;" horiz-adv-x="702" 
d="M618.5 308q38.5 -45 38.5 -113q0 -58 -28.5 -103.5t-78.5 -71.5t-114 -26q-111 0 -186 59l36 92q40 -27 73.5 -40t64.5 -13q52 0 81 28.5t29 79.5q0 55 -35 80.5t-111 25.5h-109v102h86q58 0 89 26t31 74q0 47 -34 74.5t-92 27.5q-77 0 -116.5 -41t-39.5 -122v-447h-127
v447q0 128 74 196.5t212 68.5q112 0 178 -52.5t66 -141.5q0 -51 -25.5 -91t-70.5 -60q70 -14 108.5 -59z" />
    <glyph glyph-name="uni018F" unicode="&#x18f;" horiz-adv-x="758" 
d="M540.5 670q78.5 -44 121 -125.5t42.5 -191.5q0 -107 -39.5 -189t-112 -127.5t-166.5 -45.5q-103 0 -177.5 43t-114.5 124.5t-40 195.5v53h519q-12 99 -68.5 151t-152.5 52q-120 0 -212 -74l-43 94q46 39 116 61.5t143 22.5q106 0 184.5 -44zM517 148.5q49 54.5 57 158.5
h-390q7 -104 59 -158.5t140 -54.5q85 0 134 54.5z" />
    <glyph glyph-name="T" unicode="T" horiz-adv-x="613" 
d="M242 0v599h-230v106h589v-106h-230v-599h-129z" />
    <glyph glyph-name="Tbar" unicode="&#x166;" horiz-adv-x="613" 
d="M601 599h-230v-193h138v-99h-138v-307h-129v307h-138v99h138v193h-230v106h589v-106z" />
    <glyph glyph-name="Tcaron" unicode="&#x164;" horiz-adv-x="613" 
d="M242 0v599h-230v106h589v-106h-230v-599h-129zM373 919h98l-127 -154h-74l-127 154h98l66 -92z" />
    <glyph glyph-name="uni0162" unicode="&#x162;" horiz-adv-x="613" 
d="M333 0l-5 -41q6 1 17 1q36 0 58 -18t22 -51q0 -38 -33.5 -62t-93.5 -24q-22 0 -47.5 4.5t-44.5 13.5l12 52q43 -14 78 -14q23 0 36 7.5t13 22.5q0 10 -8.5 16t-24.5 6q-14 0 -40 -7l-19 19l9 75h-20v599h-230v106h589v-106h-230v-599h-38z" />
    <glyph glyph-name="uni021A" unicode="&#x21a;" horiz-adv-x="613" 
d="M242 0v599h-230v106h589v-106h-230v-599h-129zM372 -68v-62q0 -44 -12.5 -77t-44.5 -62l-47 33q30 30 35 66h-61v102h130z" />
    <glyph glyph-name="uni1E6C" unicode="&#x1e6c;" horiz-adv-x="613" 
d="M242 0v599h-230v106h589v-106h-230v-599h-129zM246 -77h122v-116h-122v116z" />
    <glyph glyph-name="uni1E6E" unicode="&#x1e6e;" horiz-adv-x="613" 
d="M242 0v599h-230v106h589v-106h-230v-599h-129zM153 -174v77h308v-77h-308z" />
    <glyph glyph-name="U" unicode="U" horiz-adv-x="733" 
d="M147 66q-75 75 -75 219v420h126v-427q0 -91 43 -137.5t126 -46.5q82 0 125 47t43 137v427h126v-420q0 -143 -75 -218.5t-219 -75.5q-145 0 -220 75z" />
    <glyph glyph-name="Uacute" unicode="&#xda;" horiz-adv-x="733" 
d="M147 66q-75 75 -75 219v420h126v-427q0 -91 43 -137.5t126 -46.5q82 0 125 47t43 137v427h126v-420q0 -143 -75 -218.5t-219 -75.5q-145 0 -220 75zM407 765h-80l102 154h121z" />
    <glyph glyph-name="Ubreve" unicode="&#x16c;" horiz-adv-x="733" 
d="M147 66q-75 75 -75 219v420h126v-427q0 -91 43 -137.5t126 -46.5q82 0 125 47t43 137v427h126v-420q0 -143 -75 -218.5t-219 -75.5q-145 0 -220 75zM260.5 802q-45.5 27 -65.5 81l62 27q19 -32 46.5 -44.5t63.5 -12.5t63.5 12.5t46.5 44.5l62 -27q-20 -54 -65.5 -81
t-106.5 -27t-106.5 27z" />
    <glyph glyph-name="Ucircumflex" unicode="&#xdb;" horiz-adv-x="733" 
d="M147 66q-75 75 -75 219v420h126v-427q0 -91 43 -137.5t126 -46.5q82 0 125 47t43 137v427h126v-420q0 -143 -75 -218.5t-219 -75.5q-145 0 -220 75zM301 765h-98l127 154h74l127 -154h-98l-66 92z" />
    <glyph glyph-name="uni0214" unicode="&#x214;" horiz-adv-x="733" 
d="M147 66q-75 75 -75 219v420h126v-427q0 -91 43 -137.5t126 -46.5q82 0 125 47t43 137v427h126v-420q0 -143 -75 -218.5t-219 -75.5q-145 0 -220 75zM270 765l-99 154h89l73 -154h-63zM401 765l-99 154h90l72 -154h-63z" />
    <glyph glyph-name="Udieresis" unicode="&#xdc;" horiz-adv-x="733" 
d="M147 66q-75 75 -75 219v420h126v-427q0 -91 43 -137.5t126 -46.5q82 0 125 47t43 137v427h126v-420q0 -143 -75 -218.5t-219 -75.5q-145 0 -220 75zM215 900h120v-115h-120v115zM399 900h120v-115h-120v115z" />
    <glyph glyph-name="uni1EE4" unicode="&#x1ee4;" horiz-adv-x="733" 
d="M147 66q-75 75 -75 219v420h126v-427q0 -91 43 -137.5t126 -46.5q82 0 125 47t43 137v427h126v-420q0 -143 -75 -218.5t-219 -75.5q-145 0 -220 75zM306 -77h122v-116h-122v116z" />
    <glyph glyph-name="Ugrave" unicode="&#xd9;" horiz-adv-x="733" 
d="M147 66q-75 75 -75 219v420h126v-427q0 -91 43 -137.5t126 -46.5q82 0 125 47t43 137v427h126v-420q0 -143 -75 -218.5t-219 -75.5q-145 0 -220 75zM327 765l-143 154h121l102 -154h-80z" />
    <glyph glyph-name="uni1EE6" unicode="&#x1ee6;" horiz-adv-x="733" 
d="M147 66q-75 75 -75 219v420h126v-427q0 -91 43 -137.5t126 -46.5q82 0 125 47t43 137v427h126v-420q0 -143 -75 -218.5t-219 -75.5q-145 0 -220 75zM400 765h-66v20q0 18 11.5 27.5t31.5 19.5q9 4 16 9t7 10q0 17 -36 17q-26 0 -58 -11l-18 49q42 17 90 17q47 0 75 -18
t28 -46q0 -19 -12.5 -30t-34.5 -21q-18 -9 -26 -15t-8 -16v-12z" />
    <glyph glyph-name="Uhorn" unicode="&#x1af;" horiz-adv-x="733" 
d="M775 828v-34q0 -58 -30.5 -97.5t-83.5 -51.5v-360q0 -143 -75 -218.5t-219 -75.5q-145 0 -220 75t-75 219v420h126v-427q0 -91 43 -137.5t126 -46.5q82 0 125 47t43 137v427h37q52 0 73.5 23.5t21.5 81.5v18h108z" />
    <glyph glyph-name="uni1EE8" unicode="&#x1ee8;" horiz-adv-x="733" 
d="M775 828v-34q0 -58 -30.5 -97.5t-83.5 -51.5v-360q0 -143 -75 -218.5t-219 -75.5q-145 0 -220 75t-75 219v420h126v-427q0 -91 43 -137.5t126 -46.5q82 0 125 47t43 137v427h37q52 0 73.5 23.5t21.5 81.5v18h108zM407 765h-80l102 154h121z" />
    <glyph glyph-name="uni1EF0" unicode="&#x1ef0;" horiz-adv-x="733" 
d="M775 828v-34q0 -58 -30.5 -97.5t-83.5 -51.5v-360q0 -143 -75 -218.5t-219 -75.5q-145 0 -220 75t-75 219v420h126v-427q0 -91 43 -137.5t126 -46.5q82 0 125 47t43 137v427h37q52 0 73.5 23.5t21.5 81.5v18h108zM306 -77h122v-116h-122v116z" />
    <glyph glyph-name="uni1EEA" unicode="&#x1eea;" horiz-adv-x="733" 
d="M775 828v-34q0 -58 -30.5 -97.5t-83.5 -51.5v-360q0 -143 -75 -218.5t-219 -75.5q-145 0 -220 75t-75 219v420h126v-427q0 -91 43 -137.5t126 -46.5q82 0 125 47t43 137v427h37q52 0 73.5 23.5t21.5 81.5v18h108zM327 765l-143 154h121l102 -154h-80z" />
    <glyph glyph-name="uni1EEC" unicode="&#x1eec;" horiz-adv-x="733" 
d="M775 828v-34q0 -58 -30.5 -97.5t-83.5 -51.5v-360q0 -143 -75 -218.5t-219 -75.5q-145 0 -220 75t-75 219v420h126v-427q0 -91 43 -137.5t126 -46.5q82 0 125 47t43 137v427h37q52 0 73.5 23.5t21.5 81.5v18h108zM400 765h-66v20q0 18 11.5 27.5t31.5 19.5q9 4 16 9t7 10
q0 17 -36 17q-26 0 -58 -11l-18 49q42 17 90 17q47 0 75 -18t28 -46q0 -19 -12.5 -30t-34.5 -21q-18 -9 -26 -15t-8 -16v-12z" />
    <glyph glyph-name="uni1EEE" unicode="&#x1eee;" horiz-adv-x="733" 
d="M775 828v-34q0 -58 -30.5 -97.5t-83.5 -51.5v-360q0 -143 -75 -218.5t-219 -75.5q-145 0 -220 75t-75 219v420h126v-427q0 -91 43 -137.5t126 -46.5q82 0 125 47t43 137v427h37q52 0 73.5 23.5t21.5 81.5v18h108zM226 877q28 34 73 34q19 0 36 -7.5t43 -22.5
q19 -12 32 -18t25 -6q20 0 31 14t13 37h57q0 -65 -28 -99.5t-73 -34.5q-19 0 -37 8t-42 23q-23 13 -34.5 18.5t-22.5 5.5q-20 0 -31 -14.5t-13 -37.5h-57q0 66 28 100z" />
    <glyph glyph-name="Uhungarumlaut" unicode="&#x170;" horiz-adv-x="733" 
d="M147 66q-75 75 -75 219v420h126v-427q0 -91 43 -137.5t126 -46.5q82 0 125 47t43 137v427h126v-420q0 -143 -75 -218.5t-219 -75.5q-145 0 -220 75zM529 919l-99 -154h-126l72 154h153z" />
    <glyph glyph-name="uni0216" unicode="&#x216;" horiz-adv-x="733" 
d="M147 66q-75 75 -75 219v420h126v-427q0 -91 43 -137.5t126 -46.5q82 0 125 47t43 137v427h126v-420q0 -143 -75 -218.5t-219 -75.5q-145 0 -220 75zM473.5 883q45.5 -27 65.5 -81l-62 -26q-19 31 -46.5 44t-63.5 13t-63.5 -13t-46.5 -44l-62 26q20 54 65.5 81t106.5 27
t106.5 -27z" />
    <glyph glyph-name="Umacron" unicode="&#x16a;" horiz-adv-x="733" 
d="M147 66q-75 75 -75 219v420h126v-427q0 -91 43 -137.5t126 -46.5q82 0 125 47t43 137v427h126v-420q0 -143 -75 -218.5t-219 -75.5q-145 0 -220 75zM213 802v81h308v-81h-308z" />
    <glyph glyph-name="uni1E7A" unicode="&#x1e7a;" horiz-adv-x="733" 
d="M147 66q-75 75 -75 219v420h126v-427q0 -91 43 -137.5t126 -46.5q82 0 125 47t43 137v427h126v-420q0 -143 -75 -218.5t-219 -75.5q-145 0 -220 75zM213 802v81h308v-81h-308zM215 1060h120v-115h-120v115zM399 1060h120v-115h-120v115z" />
    <glyph glyph-name="Uogonek" unicode="&#x172;" horiz-adv-x="733" 
d="M661 705v-420q0 -112 -46.5 -183t-136.5 -97q-68 -19 -68 -74q0 -28 16 -42.5t45 -14.5q27 0 56 13l17 -61q-42 -21 -95 -21q-55 0 -89 30.5t-34 77.5q0 46 33 78q-141 2 -214 77t-73 217v420h126v-427q0 -91 43 -137.5t126 -46.5q82 0 125 47t43 137v427h126z" />
    <glyph glyph-name="Uring" unicode="&#x16e;" horiz-adv-x="733" 
d="M147 66q-75 75 -75 219v420h126v-427q0 -91 43 -137.5t126 -46.5q82 0 125 47t43 137v427h126v-420q0 -143 -75 -218.5t-219 -75.5q-145 0 -220 75zM292 790q-31 30 -31 74t31 74.5t75 30.5t75 -30.5t31 -74.5t-31 -74t-75 -30t-75 30zM399 830.5q13 13.5 13 33.5
t-13 33.5t-32 13.5t-32 -13.5t-13 -33.5t13 -33.5t32 -13.5t32 13.5z" />
    <glyph glyph-name="Utilde" unicode="&#x168;" horiz-adv-x="733" 
d="M147 66q-75 75 -75 219v420h126v-427q0 -91 43 -137.5t126 -46.5q82 0 125 47t43 137v427h126v-420q0 -143 -75 -218.5t-219 -75.5q-145 0 -220 75zM226 877q28 34 73 34q19 0 36 -7.5t43 -22.5q19 -12 32 -18t25 -6q20 0 31 14t13 37h57q0 -65 -28 -99.5t-73 -34.5
q-19 0 -37 8t-42 23q-23 13 -34.5 18.5t-22.5 5.5q-20 0 -31 -14.5t-13 -37.5h-57q0 66 28 100z" />
    <glyph glyph-name="uni1E78" unicode="&#x1e78;" horiz-adv-x="733" 
d="M147 66q-75 75 -75 219v420h126v-427q0 -91 43 -137.5t126 -46.5q82 0 125 47t43 137v427h126v-420q0 -143 -75 -218.5t-219 -75.5q-145 0 -220 75zM226 877q28 34 73 34q19 0 36 -7.5t43 -22.5q19 -12 32 -18t25 -6q20 0 31 14t13 37h57q0 -65 -28 -99.5t-73 -34.5
q-19 0 -37 8t-42 23q-23 13 -34.5 18.5t-22.5 5.5q-20 0 -31 -14.5t-13 -37.5h-57q0 66 28 100zM407 925h-80l102 154h121z" />
    <glyph glyph-name="V" unicode="V" horiz-adv-x="714" 
d="M593 705h131l-314 -705h-105l-314 705h133l234 -545z" />
    <glyph glyph-name="W" unicode="W" horiz-adv-x="1110" 
d="M963 705h123l-249 -705h-105l-177 507l-178 -507h-105l-248 705h130l175 -525l184 525h91l179 -528z" />
    <glyph glyph-name="Wacute" unicode="&#x1e82;" horiz-adv-x="1110" 
d="M963 705h123l-249 -705h-105l-177 507l-178 -507h-105l-248 705h130l175 -525l184 525h91l179 -528zM595 765h-80l102 154h121z" />
    <glyph glyph-name="Wcircumflex" unicode="&#x174;" horiz-adv-x="1110" 
d="M963 705h123l-249 -705h-105l-177 507l-178 -507h-105l-248 705h130l175 -525l184 525h91l179 -528zM489 765h-98l127 154h74l127 -154h-98l-66 92z" />
    <glyph glyph-name="Wdieresis" unicode="&#x1e84;" horiz-adv-x="1110" 
d="M963 705h123l-249 -705h-105l-177 507l-178 -507h-105l-248 705h130l175 -525l184 525h91l179 -528zM403 900h120v-115h-120v115zM587 900h120v-115h-120v115z" />
    <glyph glyph-name="Wgrave" unicode="&#x1e80;" horiz-adv-x="1110" 
d="M963 705h123l-249 -705h-105l-177 507l-178 -507h-105l-248 705h130l175 -525l184 525h91l179 -528zM515 765l-143 154h121l102 -154h-80z" />
    <glyph glyph-name="X" unicode="X" horiz-adv-x="664" 
d="M405 358l268 -358h-150l-191 264l-192 -264h-150l269 359l-259 346h150l182 -253l183 253h150z" />
    <glyph glyph-name="Y" unicode="Y" horiz-adv-x="623" 
d="M662 705l-286 -380v-325h-129v325l-285 380h145l204 -277l205 277h146z" />
    <glyph glyph-name="Yacute" unicode="&#xdd;" horiz-adv-x="623" 
d="M662 705l-286 -380v-325h-129v325l-285 380h145l204 -277l205 277h146zM351 765h-80l102 154h121z" />
    <glyph glyph-name="Ycircumflex" unicode="&#x176;" horiz-adv-x="623" 
d="M662 705l-286 -380v-325h-129v325l-285 380h145l204 -277l205 277h146zM245 765h-98l127 154h74l127 -154h-98l-66 92z" />
    <glyph glyph-name="Ydieresis" unicode="&#x178;" horiz-adv-x="623" 
d="M662 705l-286 -380v-325h-129v325l-285 380h145l204 -277l205 277h146zM159 900h120v-115h-120v115zM343 900h120v-115h-120v115z" />
    <glyph glyph-name="uni1E8E" unicode="&#x1e8e;" horiz-adv-x="623" 
d="M662 705l-286 -380v-325h-129v325l-285 380h145l204 -277l205 277h146zM242 904h138v-123h-138v123z" />
    <glyph glyph-name="uni1EF4" unicode="&#x1ef4;" horiz-adv-x="623" 
d="M662 705l-286 -380v-325h-129v325l-285 380h145l204 -277l205 277h146zM251 -77h122v-116h-122v116z" />
    <glyph glyph-name="Ygrave" unicode="&#x1ef2;" horiz-adv-x="623" 
d="M662 705l-286 -380v-325h-129v325l-285 380h145l204 -277l205 277h146zM271 765l-143 154h121l102 -154h-80z" />
    <glyph glyph-name="uni1EF6" unicode="&#x1ef6;" horiz-adv-x="623" 
d="M662 705l-286 -380v-325h-129v325l-285 380h145l204 -277l205 277h146zM344 765h-66v20q0 18 11.5 27.5t31.5 19.5q9 4 16 9t7 10q0 17 -36 17q-26 0 -58 -11l-18 49q42 17 90 17q47 0 75 -18t28 -46q0 -19 -12.5 -30t-34.5 -21q-18 -9 -26 -15t-8 -16v-12z" />
    <glyph glyph-name="uni0232" unicode="&#x232;" horiz-adv-x="623" 
d="M662 705l-286 -380v-325h-129v325l-285 380h145l204 -277l205 277h146zM157 802v81h308v-81h-308z" />
    <glyph glyph-name="uni1EF8" unicode="&#x1ef8;" horiz-adv-x="623" 
d="M662 705l-286 -380v-325h-129v325l-285 380h145l204 -277l205 277h146zM170 877q28 34 73 34q19 0 36 -7.5t43 -22.5q19 -12 32 -18t25 -6q20 0 31 14t13 37h57q0 -65 -28 -99.5t-73 -34.5q-19 0 -37 8t-42 23q-23 13 -34.5 18.5t-22.5 5.5q-20 0 -31 -14.5t-13 -37.5
h-57q0 66 28 100z" />
    <glyph glyph-name="Z" unicode="Z" horiz-adv-x="602" 
d="M192 103h375v-103h-519v94l362 508h-362v103h508v-93z" />
    <glyph glyph-name="Zacute" unicode="&#x179;" horiz-adv-x="602" 
d="M192 103h375v-103h-519v94l362 508h-362v103h508v-93zM342 765h-80l102 154h121z" />
    <glyph glyph-name="Zcaron" unicode="&#x17d;" horiz-adv-x="602" 
d="M192 103h375v-103h-519v94l362 508h-362v103h508v-93zM368 919h98l-127 -154h-74l-127 154h98l66 -92z" />
    <glyph glyph-name="Zdotaccent" unicode="&#x17b;" horiz-adv-x="602" 
d="M192 103h375v-103h-519v94l362 508h-362v103h508v-93zM233 904h138v-123h-138v123z" />
    <glyph glyph-name="uni1E92" unicode="&#x1e92;" horiz-adv-x="602" 
d="M192 103h375v-103h-519v94l362 508h-362v103h508v-93zM240 -77h122v-116h-122v116z" />
    <glyph glyph-name="Iacute_J.loclNLD" horiz-adv-x="639" 
d="M76 0v705h129v-705h-129zM180 765h-80l102 154h121zM275 95l70 5q89 6 89 98v507h129v-506q0 -94 -49.5 -145.5t-147.5 -57.5l-82 -5zM538 765h-80l102 154h121z" />
    <glyph glyph-name="a" unicode="a" horiz-adv-x="540" 
d="M428 451q50 -50 50 -154v-297h-119v75q-17 -39 -53.5 -61t-84.5 -22q-49 0 -89 20t-63 55t-23 78q0 54 27.5 85t89.5 45t171 14h25v23q0 50 -21.5 72t-71.5 22q-39 0 -81.5 -13.5t-83.5 -37.5l-35 86q41 26 99 43t110 17q103 0 153 -50zM327.5 115.5q31.5 33.5 31.5 86.5
v21h-18q-67 0 -104 -6t-53 -21t-16 -41q0 -32 22 -52.5t56 -20.5q50 0 81.5 33.5z" />
    <glyph glyph-name="aacute" unicode="&#xe1;" horiz-adv-x="540" 
d="M428 451q50 -50 50 -154v-297h-119v75q-17 -39 -53.5 -61t-84.5 -22q-49 0 -89 20t-63 55t-23 78q0 54 27.5 85t89.5 45t171 14h25v23q0 50 -21.5 72t-71.5 22q-39 0 -81.5 -13.5t-83.5 -37.5l-35 86q41 26 99 43t110 17q103 0 153 -50zM327.5 115.5q31.5 33.5 31.5 86.5
v21h-18q-67 0 -104 -6t-53 -21t-16 -41q0 -32 22 -52.5t56 -20.5q50 0 81.5 33.5zM317 553h-80l99 204h127z" />
    <glyph glyph-name="abreve" unicode="&#x103;" horiz-adv-x="540" 
d="M428 451q50 -50 50 -154v-297h-119v75q-17 -39 -53.5 -61t-84.5 -22q-49 0 -89 20t-63 55t-23 78q0 54 27.5 85t89.5 45t171 14h25v23q0 50 -21.5 72t-71.5 22q-39 0 -81.5 -13.5t-83.5 -37.5l-35 86q41 26 99 43t110 17q103 0 153 -50zM327.5 115.5q31.5 33.5 31.5 86.5
v21h-18q-67 0 -104 -6t-53 -21t-16 -41q0 -32 22 -52.5t56 -20.5q50 0 81.5 33.5zM166.5 613.5q-48.5 34.5 -67.5 103.5l63 26q43 -83 115 -83t115 83l63 -26q-19 -68 -67.5 -103t-110.5 -35t-110.5 34.5z" />
    <glyph glyph-name="uni1EAF" unicode="&#x1eaf;" horiz-adv-x="540" 
d="M428 451q50 -50 50 -154v-297h-119v75q-17 -39 -53.5 -61t-84.5 -22q-49 0 -89 20t-63 55t-23 78q0 54 27.5 85t89.5 45t171 14h25v23q0 50 -21.5 72t-71.5 22q-39 0 -81.5 -13.5t-83.5 -37.5l-35 86q41 26 99 43t110 17q103 0 153 -50zM327.5 115.5q31.5 33.5 31.5 86.5
v21h-18q-67 0 -104 -6t-53 -21t-16 -41q0 -32 22 -52.5t56 -20.5q50 0 81.5 33.5zM314 659h-74l99 141h114zM170.5 575q-45.5 27 -65.5 81l51 22q19 -31 51 -46t70 -15t70 15t51 46l51 -22q-20 -54 -65.5 -81t-106.5 -27t-106.5 27z" />
    <glyph glyph-name="uni1EB7" unicode="&#x1eb7;" horiz-adv-x="540" 
d="M428 451q50 -50 50 -154v-297h-119v75q-17 -39 -53.5 -61t-84.5 -22q-49 0 -89 20t-63 55t-23 78q0 54 27.5 85t89.5 45t171 14h25v23q0 50 -21.5 72t-71.5 22q-39 0 -81.5 -13.5t-83.5 -37.5l-35 86q41 26 99 43t110 17q103 0 153 -50zM327.5 115.5q31.5 33.5 31.5 86.5
v21h-18q-67 0 -104 -6t-53 -21t-16 -41q0 -32 22 -52.5t56 -20.5q50 0 81.5 33.5zM212 -77h122v-116h-122v116zM166.5 613.5q-48.5 34.5 -67.5 103.5l63 26q43 -83 115 -83t115 83l63 -26q-19 -68 -67.5 -103t-110.5 -35t-110.5 34.5z" />
    <glyph glyph-name="uni1EB1" unicode="&#x1eb1;" horiz-adv-x="540" 
d="M428 451q50 -50 50 -154v-297h-119v75q-17 -39 -53.5 -61t-84.5 -22q-49 0 -89 20t-63 55t-23 78q0 54 27.5 85t89.5 45t171 14h25v23q0 50 -21.5 72t-71.5 22q-39 0 -81.5 -13.5t-83.5 -37.5l-35 86q41 26 99 43t110 17q103 0 153 -50zM327.5 115.5q31.5 33.5 31.5 86.5
v21h-18q-67 0 -104 -6t-53 -21t-16 -41q0 -32 22 -52.5t56 -20.5q50 0 81.5 33.5zM240 659l-139 141h114l99 -141h-74zM170.5 575q-45.5 27 -65.5 81l51 22q19 -31 51 -46t70 -15t70 15t51 46l51 -22q-20 -54 -65.5 -81t-106.5 -27t-106.5 27z" />
    <glyph glyph-name="uni1EB3" unicode="&#x1eb3;" horiz-adv-x="540" 
d="M428 451q50 -50 50 -154v-297h-119v75q-17 -39 -53.5 -61t-84.5 -22q-49 0 -89 20t-63 55t-23 78q0 54 27.5 85t89.5 45t171 14h25v23q0 50 -21.5 72t-71.5 22q-39 0 -81.5 -13.5t-83.5 -37.5l-35 86q41 26 99 43t110 17q103 0 153 -50zM327.5 115.5q31.5 33.5 31.5 86.5
v21h-18q-67 0 -104 -6t-53 -21t-16 -41q0 -32 22 -52.5t56 -20.5q50 0 81.5 33.5zM310 659h-66v19q0 18 12 27t33 18q21 7 21 14q0 6 -9 10.5t-27 4.5q-26 0 -58 -11l-18 47q45 18 90 18q47 0 75 -17.5t28 -44.5q0 -19 -12 -28.5t-35 -18.5q-17 -7 -25.5 -13t-8.5 -16v-9z
M170.5 575q-45.5 27 -65.5 81l51 22q19 -31 51 -46t70 -15t70 15t51 46l51 -22q-20 -54 -65.5 -81t-106.5 -27t-106.5 27z" />
    <glyph glyph-name="uni1EB5" unicode="&#x1eb5;" horiz-adv-x="540" 
d="M428 451q50 -50 50 -154v-297h-119v75q-17 -39 -53.5 -61t-84.5 -22q-49 0 -89 20t-63 55t-23 78q0 54 27.5 85t89.5 45t171 14h25v23q0 50 -21.5 72t-71.5 22q-39 0 -81.5 -13.5t-83.5 -37.5l-35 86q41 26 99 43t110 17q103 0 153 -50zM327.5 115.5q31.5 33.5 31.5 86.5
v21h-18q-67 0 -104 -6t-53 -21t-16 -41q0 -32 22 -52.5t56 -20.5q50 0 81.5 33.5zM137 776.5q29 29.5 72 29.5q19 0 35 -5t44 -17q38 -18 57 -18q20 0 31 9.5t13 27.5h57q0 -45 -29 -74.5t-72 -29.5q-19 0 -35 5t-44 17q-38 18 -57 18q-20 0 -31 -9.5t-13 -27.5h-57
q0 45 29 74.5zM170.5 575q-45.5 27 -65.5 81l51 22q19 -31 51 -46t70 -15t70 15t51 46l51 -22q-20 -54 -65.5 -81t-106.5 -27t-106.5 27z" />
    <glyph glyph-name="uni01CE" unicode="&#x1ce;" horiz-adv-x="540" 
d="M428 451q50 -50 50 -154v-297h-119v75q-17 -39 -53.5 -61t-84.5 -22q-49 0 -89 20t-63 55t-23 78q0 54 27.5 85t89.5 45t171 14h25v23q0 50 -21.5 72t-71.5 22q-39 0 -81.5 -13.5t-83.5 -37.5l-35 86q41 26 99 43t110 17q103 0 153 -50zM327.5 115.5q31.5 33.5 31.5 86.5
v21h-18q-67 0 -104 -6t-53 -21t-16 -41q0 -32 22 -52.5t56 -20.5q50 0 81.5 33.5zM340 757h101l-125 -204h-78l-125 204h101l63 -126z" />
    <glyph glyph-name="acircumflex" unicode="&#xe2;" horiz-adv-x="540" 
d="M428 451q50 -50 50 -154v-297h-119v75q-17 -39 -53.5 -61t-84.5 -22q-49 0 -89 20t-63 55t-23 78q0 54 27.5 85t89.5 45t171 14h25v23q0 50 -21.5 72t-71.5 22q-39 0 -81.5 -13.5t-83.5 -37.5l-35 86q41 26 99 43t110 17q103 0 153 -50zM327.5 115.5q31.5 33.5 31.5 86.5
v21h-18q-67 0 -104 -6t-53 -21t-16 -41q0 -32 22 -52.5t56 -20.5q50 0 81.5 33.5zM214 553h-101l125 204h78l125 -204h-101l-63 126z" />
    <glyph glyph-name="uni1EA5" unicode="&#x1ea5;" horiz-adv-x="540" 
d="M428 451q50 -50 50 -154v-297h-119v75q-17 -39 -53.5 -61t-84.5 -22q-49 0 -89 20t-63 55t-23 78q0 54 27.5 85t89.5 45t171 14h25v23q0 50 -21.5 72t-71.5 22q-39 0 -81.5 -13.5t-83.5 -37.5l-35 86q41 26 99 43t110 17q103 0 153 -50zM327.5 115.5q31.5 33.5 31.5 86.5
v21h-18q-67 0 -104 -6t-53 -21t-16 -41q0 -32 22 -52.5t56 -20.5q50 0 81.5 33.5zM432 659h-64l79 141h110zM210 553h-97l127 142h74l127 -142h-97l-67 82z" />
    <glyph glyph-name="uni1EAD" unicode="&#x1ead;" horiz-adv-x="540" 
d="M428 451q50 -50 50 -154v-297h-119v75q-17 -39 -53.5 -61t-84.5 -22q-49 0 -89 20t-63 55t-23 78q0 54 27.5 85t89.5 45t171 14h25v23q0 50 -21.5 72t-71.5 22q-39 0 -81.5 -13.5t-83.5 -37.5l-35 86q41 26 99 43t110 17q103 0 153 -50zM327.5 115.5q31.5 33.5 31.5 86.5
v21h-18q-67 0 -104 -6t-53 -21t-16 -41q0 -32 22 -52.5t56 -20.5q50 0 81.5 33.5zM212 -77h122v-116h-122v116zM214 553h-101l125 204h78l125 -204h-101l-63 126z" />
    <glyph glyph-name="uni1EA7" unicode="&#x1ea7;" horiz-adv-x="540" 
d="M428 451q50 -50 50 -154v-297h-119v75q-17 -39 -53.5 -61t-84.5 -22q-49 0 -89 20t-63 55t-23 78q0 54 27.5 85t89.5 45t171 14h25v23q0 50 -21.5 72t-71.5 22q-39 0 -81.5 -13.5t-83.5 -37.5l-35 86q41 26 99 43t110 17q103 0 153 -50zM327.5 115.5q31.5 33.5 31.5 86.5
v21h-18q-67 0 -104 -6t-53 -21t-16 -41q0 -32 22 -52.5t56 -20.5q50 0 81.5 33.5zM410 659l-118 141h110l72 -141h-64zM210 553h-97l127 142h74l127 -142h-97l-67 82z" />
    <glyph glyph-name="uni1EA9" unicode="&#x1ea9;" horiz-adv-x="540" 
d="M428 451q50 -50 50 -154v-297h-119v75q-17 -39 -53.5 -61t-84.5 -22q-49 0 -89 20t-63 55t-23 78q0 54 27.5 85t89.5 45t171 14h25v23q0 50 -21.5 72t-71.5 22q-39 0 -81.5 -13.5t-83.5 -37.5l-35 86q41 26 99 43t110 17q103 0 153 -50zM327.5 115.5q31.5 33.5 31.5 86.5
v21h-18q-67 0 -104 -6t-53 -21t-16 -41q0 -32 22 -52.5t56 -20.5q50 0 81.5 33.5zM433 659h-66v19q0 18 12 27t33 18q21 7 21 14q0 6 -9 10.5t-27 4.5q-26 0 -59 -11l-17 47q45 18 90 18q47 0 75 -17.5t28 -44.5q0 -19 -12 -28.5t-35 -18.5q-17 -7 -25.5 -13t-8.5 -16v-9z
M210 553h-97l127 142h74l127 -142h-97l-67 82z" />
    <glyph glyph-name="uni1EAB" unicode="&#x1eab;" horiz-adv-x="540" 
d="M428 451q50 -50 50 -154v-297h-119v75q-17 -39 -53.5 -61t-84.5 -22q-49 0 -89 20t-63 55t-23 78q0 54 27.5 85t89.5 45t171 14h25v23q0 50 -21.5 72t-71.5 22q-39 0 -81.5 -13.5t-83.5 -37.5l-35 86q41 26 99 43t110 17q103 0 153 -50zM327.5 115.5q31.5 33.5 31.5 86.5
v21h-18q-67 0 -104 -6t-53 -21t-16 -41q0 -32 22 -52.5t56 -20.5q50 0 81.5 33.5zM137 785q29 29 72 29q19 0 35 -4.5t44 -15.5q15 -6 30.5 -11t26.5 -5q20 0 31 9.5t13 25.5h57q0 -44 -29 -73t-72 -29q-19 0 -35 4.5t-44 15.5q-15 6 -30.5 11t-26.5 5q-20 0 -31 -9.5
t-13 -25.5h-57q0 44 29 73zM210 553h-97l127 142h74l127 -142h-97l-67 82z" />
    <glyph glyph-name="uni0201" unicode="&#x201;" horiz-adv-x="540" 
d="M428 451q50 -50 50 -154v-297h-119v75q-17 -39 -53.5 -61t-84.5 -22q-49 0 -89 20t-63 55t-23 78q0 54 27.5 85t89.5 45t171 14h25v23q0 50 -21.5 72t-71.5 22q-39 0 -81.5 -13.5t-83.5 -37.5l-35 86q41 26 99 43t110 17q103 0 153 -50zM327.5 115.5q31.5 33.5 31.5 86.5
v21h-18q-67 0 -104 -6t-53 -21t-16 -41q0 -32 22 -52.5t56 -20.5q50 0 81.5 33.5zM183 553l-78 204h96l38 -204h-56zM315 553l-78 204h96l38 -204h-56z" />
    <glyph glyph-name="adieresis" unicode="&#xe4;" horiz-adv-x="540" 
d="M428 451q50 -50 50 -154v-297h-119v75q-17 -39 -53.5 -61t-84.5 -22q-49 0 -89 20t-63 55t-23 78q0 54 27.5 85t89.5 45t171 14h25v23q0 50 -21.5 72t-71.5 22q-39 0 -81.5 -13.5t-83.5 -37.5l-35 86q41 26 99 43t110 17q103 0 153 -50zM327.5 115.5q31.5 33.5 31.5 86.5
v21h-18q-67 0 -104 -6t-53 -21t-16 -41q0 -32 22 -52.5t56 -20.5q50 0 81.5 33.5zM125 712h120v-114h-120v114zM309 712h120v-114h-120v114z" />
    <glyph glyph-name="uni0227" unicode="&#x227;" horiz-adv-x="540" 
d="M428 451q50 -50 50 -154v-297h-119v75q-17 -39 -53.5 -61t-84.5 -22q-49 0 -89 20t-63 55t-23 78q0 54 27.5 85t89.5 45t171 14h25v23q0 50 -21.5 72t-71.5 22q-39 0 -81.5 -13.5t-83.5 -37.5l-35 86q41 26 99 43t110 17q103 0 153 -50zM327.5 115.5q31.5 33.5 31.5 86.5
v21h-18q-67 0 -104 -6t-53 -21t-16 -41q0 -32 22 -52.5t56 -20.5q50 0 81.5 33.5zM208 716h138v-123h-138v123z" />
    <glyph glyph-name="uni1EA1" unicode="&#x1ea1;" horiz-adv-x="540" 
d="M428 451q50 -50 50 -154v-297h-119v75q-17 -39 -53.5 -61t-84.5 -22q-49 0 -89 20t-63 55t-23 78q0 54 27.5 85t89.5 45t171 14h25v23q0 50 -21.5 72t-71.5 22q-39 0 -81.5 -13.5t-83.5 -37.5l-35 86q41 26 99 43t110 17q103 0 153 -50zM327.5 115.5q31.5 33.5 31.5 86.5
v21h-18q-67 0 -104 -6t-53 -21t-16 -41q0 -32 22 -52.5t56 -20.5q50 0 81.5 33.5zM212 -77h122v-116h-122v116z" />
    <glyph glyph-name="agrave" unicode="&#xe0;" horiz-adv-x="540" 
d="M428 451q50 -50 50 -154v-297h-119v75q-17 -39 -53.5 -61t-84.5 -22q-49 0 -89 20t-63 55t-23 78q0 54 27.5 85t89.5 45t171 14h25v23q0 50 -21.5 72t-71.5 22q-39 0 -81.5 -13.5t-83.5 -37.5l-35 86q41 26 99 43t110 17q103 0 153 -50zM327.5 115.5q31.5 33.5 31.5 86.5
v21h-18q-67 0 -104 -6t-53 -21t-16 -41q0 -32 22 -52.5t56 -20.5q50 0 81.5 33.5zM237 553l-146 204h127l99 -204h-80z" />
    <glyph glyph-name="uni1EA3" unicode="&#x1ea3;" horiz-adv-x="540" 
d="M428 451q50 -50 50 -154v-297h-119v75q-17 -39 -53.5 -61t-84.5 -22q-49 0 -89 20t-63 55t-23 78q0 54 27.5 85t89.5 45t171 14h25v23q0 50 -21.5 72t-71.5 22q-39 0 -81.5 -13.5t-83.5 -37.5l-35 86q41 26 99 43t110 17q103 0 153 -50zM327.5 115.5q31.5 33.5 31.5 86.5
v21h-18q-67 0 -104 -6t-53 -21t-16 -41q0 -32 22 -52.5t56 -20.5q50 0 81.5 33.5zM312 553h-67v27q0 21 10 35t28 29q13 12 18 18t5 14q0 24 -37 24q-26 0 -53 -10l-18 52q42 18 83 18q52 0 81 -20.5t29 -51.5q0 -23 -11 -37.5t-34 -31.5q-17 -12 -25.5 -22t-8.5 -24v-20z
" />
    <glyph glyph-name="uni0203" unicode="&#x203;" horiz-adv-x="540" 
d="M428 451q50 -50 50 -154v-297h-119v75q-17 -39 -53.5 -61t-84.5 -22q-49 0 -89 20t-63 55t-23 78q0 54 27.5 85t89.5 45t171 14h25v23q0 50 -21.5 72t-71.5 22q-39 0 -81.5 -13.5t-83.5 -37.5l-35 86q41 26 99 43t110 17q103 0 153 -50zM327.5 115.5q31.5 33.5 31.5 86.5
v21h-18q-67 0 -104 -6t-53 -21t-16 -41q0 -32 22 -52.5t56 -20.5q50 0 81.5 33.5zM387.5 705.5q48.5 -34.5 67.5 -103.5l-63 -26q-43 83 -115 83t-115 -83l-63 26q19 68 67.5 103t110.5 35t110.5 -34.5z" />
    <glyph glyph-name="amacron" unicode="&#x101;" horiz-adv-x="540" 
d="M428 451q50 -50 50 -154v-297h-119v75q-17 -39 -53.5 -61t-84.5 -22q-49 0 -89 20t-63 55t-23 78q0 54 27.5 85t89.5 45t171 14h25v23q0 50 -21.5 72t-71.5 22q-39 0 -81.5 -13.5t-83.5 -37.5l-35 86q41 26 99 43t110 17q103 0 153 -50zM327.5 115.5q31.5 33.5 31.5 86.5
v21h-18q-67 0 -104 -6t-53 -21t-16 -41q0 -32 22 -52.5t56 -20.5q50 0 81.5 33.5zM123 614v81h308v-81h-308z" />
    <glyph glyph-name="aogonek" unicode="&#x105;" horiz-adv-x="540" 
d="M518 -174q-40 -21 -94 -21q-55 0 -89.5 30.5t-34.5 78.5q0 31 15 57.5t44 44.5v59q-17 -39 -53 -61t-84 -22q-49 0 -89.5 20t-63.5 55t-23 78q0 54 27.5 85t90 45t170.5 14h25v23q0 50 -21.5 72t-71.5 22q-39 0 -81.5 -13.5t-83.5 -37.5l-35 86q41 26 99 43t110 17
q103 0 153 -50t50 -154v-297h-8q-38 0 -62 -19t-24 -50q0 -28 16.5 -42.5t45.5 -14.5q28 0 55 13zM327.5 115.5q31.5 33.5 31.5 86.5v21h-18q-66 0 -103.5 -6.5t-53.5 -21t-16 -40.5q0 -32 22.5 -52.5t55.5 -20.5q50 0 81.5 33.5z" />
    <glyph glyph-name="aring" unicode="&#xe5;" horiz-adv-x="540" 
d="M428 451q50 -50 50 -154v-297h-119v75q-17 -39 -53.5 -61t-84.5 -22q-49 0 -89 20t-63 55t-23 78q0 54 27.5 85t89.5 45t171 14h25v23q0 50 -21.5 72t-71.5 22q-39 0 -81.5 -13.5t-83.5 -37.5l-35 86q41 26 99 43t110 17q103 0 153 -50zM327.5 115.5q31.5 33.5 31.5 86.5
v21h-18q-67 0 -104 -6t-53 -21t-16 -41q0 -32 22 -52.5t56 -20.5q50 0 81.5 33.5zM202 581.5q-31 30.5 -31 74.5q0 43 31 73.5t75 30.5t75 -30.5t31 -73.5q0 -44 -31 -74.5t-75 -30.5t-75 30.5zM309 622q13 14 13 34t-13 33.5t-32 13.5t-32 -13.5t-13 -33.5t13 -34t32 -14
t32 14z" />
    <glyph glyph-name="aringacute" unicode="&#x1fb;" horiz-adv-x="540" 
d="M202 582q-31 30 -31 74t31 74t75 30q24 0 47 -10l69 102h121l-142 -149q11 -22 11 -47q0 -44 -31 -74t-75 -30t-75 30zM245 689.5q-13 -13.5 -13 -33.5t13 -33.5t32 -13.5t32 13.5t13 33.5t-13 33.5t-32 13.5t-32 -13.5zM428 451q50 -50 50 -154v-297h-119v75
q-17 -39 -53.5 -61t-84.5 -22q-49 0 -89 20t-63 55t-23 78q0 54 27.5 85t89.5 45t171 14h25v23q0 50 -21.5 72t-71.5 22q-39 0 -81.5 -13.5t-83.5 -37.5l-35 86q41 26 99 43t110 17q103 0 153 -50zM327.5 115.5q31.5 33.5 31.5 86.5v21h-18q-67 0 -104 -6t-53 -21t-16 -41
q0 -32 22 -52.5t56 -20.5q50 0 81.5 33.5z" />
    <glyph glyph-name="atilde" unicode="&#xe3;" horiz-adv-x="540" 
d="M428 451q50 -50 50 -154v-297h-119v75q-17 -39 -53.5 -61t-84.5 -22q-49 0 -89 20t-63 55t-23 78q0 54 27.5 85t89.5 45t171 14h25v23q0 50 -21.5 72t-71.5 22q-39 0 -81.5 -13.5t-83.5 -37.5l-35 86q41 26 99 43t110 17q103 0 153 -50zM327.5 115.5q31.5 33.5 31.5 86.5
v21h-18q-67 0 -104 -6t-53 -21t-16 -41q0 -32 22 -52.5t56 -20.5q50 0 81.5 33.5zM136 690.5q28 34.5 73 34.5q19 0 36 -7.5t43 -22.5q19 -12 32 -18t25 -6q20 0 31 14t13 37h57q0 -66 -28 -100t-73 -34q-19 0 -36 7.5t-43 22.5q-19 12 -32 18t-25 6q-20 0 -31 -14t-13 -37
h-57q0 65 28 99.5z" />
    <glyph glyph-name="ae" unicode="&#xe6;" horiz-adv-x="843" 
d="M806 222h-326q6 -69 38.5 -101.5t93.5 -32.5q82 0 151 52l35 -86q-35 -28 -85.5 -45t-101.5 -17q-71 0 -122.5 27.5t-80.5 79.5q-22 -52 -66.5 -79.5t-105.5 -27.5q-54 0 -97.5 19.5t-68 54.5t-24.5 79q0 54 27.5 85t89.5 45t171 14h25v22q0 50 -21.5 72.5t-67.5 22.5
q-41 0 -85 -13t-84 -38l-35 86q40 26 98.5 43t110.5 17q116 0 160 -71q30 34 72 52.5t92 18.5q62 0 109 -30t72.5 -85.5t25.5 -129.5v-34zM516.5 380.5q-30.5 -32.5 -36.5 -91.5h220q-3 60 -29.5 92t-73.5 32q-50 0 -80.5 -32.5zM328 116.5q31 34.5 31 87.5v19h-18
q-66 0 -103.5 -6.5t-53.5 -21t-16 -40.5q0 -33 23.5 -53t59.5 -20q46 0 77 34.5z" />
    <glyph glyph-name="aeacute" unicode="&#x1fd;" horiz-adv-x="843" 
d="M806 222h-326q6 -69 38.5 -101.5t93.5 -32.5q82 0 151 52l35 -86q-35 -28 -85.5 -45t-101.5 -17q-71 0 -122.5 27.5t-80.5 79.5q-22 -52 -66.5 -79.5t-105.5 -27.5q-54 0 -97.5 19.5t-68 54.5t-24.5 79q0 54 27.5 85t89.5 45t171 14h25v22q0 50 -21.5 72.5t-67.5 22.5
q-41 0 -85 -13t-84 -38l-35 86q40 26 98.5 43t110.5 17q116 0 160 -71q30 34 72 52.5t92 18.5q62 0 109 -30t72.5 -85.5t25.5 -129.5v-34zM516.5 380.5q-30.5 -32.5 -36.5 -91.5h220q-3 60 -29.5 92t-73.5 32q-50 0 -80.5 -32.5zM328 116.5q31 34.5 31 87.5v19h-18
q-66 0 -103.5 -6.5t-53.5 -21t-16 -40.5q0 -33 23.5 -53t59.5 -20q46 0 77 34.5zM459 553h-80l99 204h127z" />
    <glyph glyph-name="b" unicode="b" horiz-adv-x="601" 
d="M459 470q49 -31 76.5 -88t27.5 -133t-27.5 -134.5t-77 -90.5t-112.5 -32q-53 0 -94.5 23t-63.5 64v-79h-123v705h125v-287q22 40 63 61.5t93 21.5q64 0 113 -31zM405 131q33 42 33 118q0 75 -32.5 115t-92.5 40t-92.5 -40.5t-32.5 -116.5t32.5 -117t92.5 -41q59 0 92 42z
" />
    <glyph glyph-name="c" unicode="c" horiz-adv-x="488" 
d="M154.5 23q-56.5 31 -86.5 88t-30 133t31.5 134.5t89.5 90.5t134 32q52 0 101.5 -16.5t79.5 -44.5l-36 -88q-31 25 -65.5 38t-68.5 13q-65 0 -101 -40.5t-36 -116.5q0 -75 36 -115.5t101 -40.5q34 0 68.5 13t65.5 38l36 -87q-32 -29 -82 -45.5t-104 -16.5q-77 0 -133.5 31
z" />
    <glyph glyph-name="cacute" unicode="&#x107;" horiz-adv-x="488" 
d="M154.5 23q-56.5 31 -86.5 88t-30 133t31.5 134.5t89.5 90.5t134 32q52 0 101.5 -16.5t79.5 -44.5l-36 -88q-31 25 -65.5 38t-68.5 13q-65 0 -101 -40.5t-36 -116.5q0 -75 36 -115.5t101 -40.5q34 0 68.5 13t65.5 38l36 -87q-32 -29 -82 -45.5t-104 -16.5q-77 0 -133.5 31
zM329 553h-80l99 204h127z" />
    <glyph glyph-name="ccaron" unicode="&#x10d;" horiz-adv-x="488" 
d="M154.5 23q-56.5 31 -86.5 88t-30 133t31.5 134.5t89.5 90.5t134 32q52 0 101.5 -16.5t79.5 -44.5l-36 -88q-31 25 -65.5 38t-68.5 13q-65 0 -101 -40.5t-36 -116.5q0 -75 36 -115.5t101 -40.5q34 0 68.5 13t65.5 38l36 -87q-32 -29 -82 -45.5t-104 -16.5q-77 0 -133.5 31
zM352 757h101l-125 -204h-78l-125 204h101l63 -126z" />
    <glyph glyph-name="ccedilla" unicode="&#xe7;" horiz-adv-x="488" 
d="M400.5 11.5q-44.5 -16.5 -93.5 -18.5l-4 -34q6 1 17 1q36 0 58 -18t22 -51q0 -38 -33.5 -62t-93.5 -24q-22 0 -47.5 4.5t-44.5 13.5l12 52q43 -14 78 -14q23 0 36 7.5t13 22.5q0 10 -8.5 16t-24.5 6q-14 0 -40 -7l-19 19l8 71q-93 15 -145.5 81t-52.5 167
q0 76 31.5 134.5t89.5 90.5t134 32q52 0 101.5 -16.5t79.5 -44.5l-36 -88q-31 25 -65.5 38t-68.5 13q-65 0 -101 -40.5t-36 -116.5q0 -75 36 -115.5t101 -40.5q34 0 68.5 13t65.5 38l36 -87q-29 -26 -73.5 -42.5z" />
    <glyph glyph-name="uni1E09" unicode="&#x1e09;" horiz-adv-x="488" 
d="M475 757l-146 -204h-80l99 204h127zM203 362.5q-36 -40.5 -36 -116.5q0 -75 36 -115.5t101 -40.5q34 0 68.5 13t65.5 38l36 -87q-29 -26 -73.5 -42.5t-93.5 -18.5l-4 -34q6 1 17 1q36 0 58 -18t22 -51q0 -38 -33.5 -62t-93.5 -24q-22 0 -47.5 4.5t-44.5 13.5l12 52
q43 -14 78 -14q23 0 36 7.5t13 22.5q0 10 -8.5 16t-24.5 6q-14 0 -40 -7l-19 19l8 71q-93 15 -145.5 81t-52.5 167q0 76 31.5 134.5t89.5 90.5t134 32q52 0 101.5 -16.5t79.5 -44.5l-36 -88q-31 25 -65.5 38t-68.5 13q-65 0 -101 -40.5z" />
    <glyph glyph-name="ccircumflex" unicode="&#x109;" horiz-adv-x="488" 
d="M154.5 23q-56.5 31 -86.5 88t-30 133t31.5 134.5t89.5 90.5t134 32q52 0 101.5 -16.5t79.5 -44.5l-36 -88q-31 25 -65.5 38t-68.5 13q-65 0 -101 -40.5t-36 -116.5q0 -75 36 -115.5t101 -40.5q34 0 68.5 13t65.5 38l36 -87q-32 -29 -82 -45.5t-104 -16.5q-77 0 -133.5 31
zM226 553h-101l125 204h78l125 -204h-101l-63 126z" />
    <glyph glyph-name="cdotaccent" unicode="&#x10b;" horiz-adv-x="488" 
d="M154.5 23q-56.5 31 -86.5 88t-30 133t31.5 134.5t89.5 90.5t134 32q52 0 101.5 -16.5t79.5 -44.5l-36 -88q-31 25 -65.5 38t-68.5 13q-65 0 -101 -40.5t-36 -116.5q0 -75 36 -115.5t101 -40.5q34 0 68.5 13t65.5 38l36 -87q-32 -29 -82 -45.5t-104 -16.5q-77 0 -133.5 31
zM220 716h138v-123h-138v123z" />
    <glyph glyph-name="d" unicode="d" horiz-adv-x="601" 
d="M537 705v-705h-124v79q-22 -41 -63.5 -64t-94.5 -23q-63 0 -112.5 32t-77 90.5t-27.5 134.5t27.5 133t76.5 88t113 31q53 0 94 -22t63 -62v288h125zM380.5 130q32.5 41 32.5 117t-32.5 116.5t-91.5 40.5q-60 0 -93 -40t-33 -115q0 -76 33 -118t92 -42q60 0 92.5 41z" />
    <glyph glyph-name="eth" unicode="&#xf0;" horiz-adv-x="581" 
d="M519.5 437.5q23.5 -68.5 23.5 -143.5q0 -146 -67 -224t-193 -78q-72 0 -128 29t-86.5 82t-30.5 122q0 67 30 119.5t83.5 81.5t121.5 29q90 0 141 -51q-21 72 -72 125l-170 -51l-20 68l122 37q-56 32 -123 45l28 86q124 -21 214 -95l127 38l19 -68l-89 -27
q46 -56 69.5 -124.5zM379.5 124.5q32.5 35.5 32.5 100.5q0 66 -32 100.5t-92 34.5t-92.5 -34.5t-32.5 -100.5q0 -67 32 -101.5t92 -34.5t92.5 35.5z" />
    <glyph glyph-name="dcaron" unicode="&#x10f;" horiz-adv-x="601" 
d="M412 705h125v-705h-124v79q-22 -41 -63.5 -64t-94.5 -23q-63 0 -112.5 32t-77 90.5t-27.5 134.5t27.5 133t76.5 88t113 31q53 0 94 -22t63 -62v288zM565 705h73l-26 -192h-47v192zM380.5 130q32.5 41 32.5 117t-32.5 116.5t-91.5 40.5q-60 0 -93 -40t-33 -115
q0 -76 33 -118t92 -42q60 0 92.5 41z" />
    <glyph glyph-name="dcroat" unicode="&#x111;" horiz-adv-x="601" 
d="M625 541h-88v-541h-124v79q-22 -41 -63.5 -64t-94.5 -23q-63 0 -112.5 32t-77 90.5t-27.5 134.5t27.5 133t76.5 88t113 31q53 0 94 -22t63 -62v124h-188v89h188v75h125v-75h88v-89zM380.5 130q32.5 41 32.5 117t-32.5 116.5t-91.5 40.5q-60 0 -93 -40t-33 -115
q0 -76 33 -118t92 -42q60 0 92.5 41z" />
    <glyph glyph-name="uni1E0D" unicode="&#x1e0d;" horiz-adv-x="601" 
d="M537 705v-705h-124v79q-22 -41 -63.5 -64t-94.5 -23q-63 0 -112.5 32t-77 90.5t-27.5 134.5t27.5 133t76.5 88t113 31q53 0 94 -22t63 -62v288h125zM380.5 130q32.5 41 32.5 117t-32.5 116.5t-91.5 40.5q-60 0 -93 -40t-33 -115q0 -76 33 -118t92 -42q60 0 92.5 41z
M241 -77h122v-116h-122v116z" />
    <glyph glyph-name="uni1E0F" unicode="&#x1e0f;" horiz-adv-x="601" 
d="M537 705v-705h-124v79q-22 -41 -63.5 -64t-94.5 -23q-63 0 -112.5 32t-77 90.5t-27.5 134.5t27.5 133t76.5 88t113 31q53 0 94 -22t63 -62v288h125zM380.5 130q32.5 41 32.5 117t-32.5 116.5t-91.5 40.5q-60 0 -93 -40t-33 -115q0 -76 33 -118t92 -42q60 0 92.5 41z
M148 -174v77h308v-77h-308z" />
    <glyph glyph-name="uni01C6" unicode="&#x1c6;" horiz-adv-x="1111" 
d="M537 705v-705h-124v79q-22 -41 -63.5 -64t-94.5 -23q-63 0 -112.5 32t-77 90.5t-27.5 134.5t27.5 133t76.5 88t113 31q53 0 94 -22t63 -62v288h125zM380.5 130q32.5 41 32.5 117t-32.5 116.5t-91.5 40.5q-60 0 -93 -40t-33 -115q0 -76 33 -118t92 -42q60 0 92.5 41z
M796 94h278v-94h-426v87l266 308h-261v94h411v-85zM926 757h101l-125 -204h-78l-125 204h101l63 -126z" />
    <glyph glyph-name="e" unicode="e" horiz-adv-x="531" 
d="M494 222h-333q6 -68 41 -101t100 -33q81 0 148 52l36 -86q-34 -28 -85.5 -45t-103.5 -17q-120 0 -189.5 68t-69.5 186q0 75 30 133t84.5 90t123.5 32q101 0 159.5 -65t58.5 -179v-35zM198.5 381q-30.5 -32 -37.5 -92h226q-2 61 -30 92.5t-78 31.5t-80.5 -32z" />
    <glyph glyph-name="eacute" unicode="&#xe9;" horiz-adv-x="531" 
d="M494 222h-333q6 -68 41 -101t100 -33q81 0 148 52l36 -86q-34 -28 -85.5 -45t-103.5 -17q-120 0 -189.5 68t-69.5 186q0 75 30 133t84.5 90t123.5 32q101 0 159.5 -65t58.5 -179v-35zM198.5 381q-30.5 -32 -37.5 -92h226q-2 61 -30 92.5t-78 31.5t-80.5 -32zM316 553h-80
l99 204h127z" />
    <glyph glyph-name="ebreve" unicode="&#x115;" horiz-adv-x="531" 
d="M494 222h-333q6 -68 41 -101t100 -33q81 0 148 52l36 -86q-34 -28 -85.5 -45t-103.5 -17q-120 0 -189.5 68t-69.5 186q0 75 30 133t84.5 90t123.5 32q101 0 159.5 -65t58.5 -179v-35zM198.5 381q-30.5 -32 -37.5 -92h226q-2 61 -30 92.5t-78 31.5t-80.5 -32zM165.5 613.5
q-48.5 34.5 -67.5 103.5l63 26q43 -83 115 -83t115 83l63 -26q-19 -68 -67.5 -103t-110.5 -35t-110.5 34.5z" />
    <glyph glyph-name="ecaron" unicode="&#x11b;" horiz-adv-x="531" 
d="M494 222h-333q6 -68 41 -101t100 -33q81 0 148 52l36 -86q-34 -28 -85.5 -45t-103.5 -17q-120 0 -189.5 68t-69.5 186q0 75 30 133t84.5 90t123.5 32q101 0 159.5 -65t58.5 -179v-35zM198.5 381q-30.5 -32 -37.5 -92h226q-2 61 -30 92.5t-78 31.5t-80.5 -32zM339 757h101
l-125 -204h-78l-125 204h101l63 -126z" />
    <glyph glyph-name="uni1E1D" unicode="&#x1e1d;" horiz-adv-x="531" 
d="M165.5 613.5q-48.5 34.5 -67.5 103.5l63 26q43 -83 115 -83t115 83l63 -26q-19 -68 -67.5 -103t-110.5 -35t-110.5 34.5zM494 222h-333q6 -68 41 -101t100 -33q81 0 148 52l36 -86q-31 -25 -75.5 -41.5t-91.5 -19.5l-4 -34q6 1 17 1q36 0 58 -18t22 -51q0 -38 -33.5 -62
t-93.5 -24q-22 0 -47.5 4.5t-44.5 13.5l12 52q43 -14 78 -14q23 0 36 7.5t13 22.5q0 10 -8.5 16t-24.5 6q-14 0 -40 -7l-19 19l8 70q-98 14 -154 80t-56 171q0 75 30 133t84.5 90t123.5 32q101 0 159.5 -65t58.5 -179v-35zM198.5 381q-30.5 -32 -37.5 -92h226
q-2 61 -30 92.5t-78 31.5t-80.5 -32z" />
    <glyph glyph-name="ecircumflex" unicode="&#xea;" horiz-adv-x="531" 
d="M494 222h-333q6 -68 41 -101t100 -33q81 0 148 52l36 -86q-34 -28 -85.5 -45t-103.5 -17q-120 0 -189.5 68t-69.5 186q0 75 30 133t84.5 90t123.5 32q101 0 159.5 -65t58.5 -179v-35zM198.5 381q-30.5 -32 -37.5 -92h226q-2 61 -30 92.5t-78 31.5t-80.5 -32zM213 553
h-101l125 204h78l125 -204h-101l-63 126z" />
    <glyph glyph-name="uni1EBF" unicode="&#x1ebf;" horiz-adv-x="531" 
d="M494 222h-333q6 -68 41 -101t100 -33q81 0 148 52l36 -86q-34 -28 -85.5 -45t-103.5 -17q-120 0 -189.5 68t-69.5 186q0 75 30 133t84.5 90t123.5 32q101 0 159.5 -65t58.5 -179v-35zM198.5 381q-30.5 -32 -37.5 -92h226q-2 61 -30 92.5t-78 31.5t-80.5 -32zM431 659h-64
l79 141h110zM209 553h-97l127 142h74l127 -142h-97l-67 82z" />
    <glyph glyph-name="uni1EC7" unicode="&#x1ec7;" horiz-adv-x="531" 
d="M494 222h-333q6 -68 41 -101t100 -33q81 0 148 52l36 -86q-34 -28 -85.5 -45t-103.5 -17q-120 0 -189.5 68t-69.5 186q0 75 30 133t84.5 90t123.5 32q101 0 159.5 -65t58.5 -179v-35zM198.5 381q-30.5 -32 -37.5 -92h226q-2 61 -30 92.5t-78 31.5t-80.5 -32zM233 -77h122
v-116h-122v116zM213 553h-101l125 204h78l125 -204h-101l-63 126z" />
    <glyph glyph-name="uni1EC1" unicode="&#x1ec1;" horiz-adv-x="531" 
d="M494 222h-333q6 -68 41 -101t100 -33q81 0 148 52l36 -86q-34 -28 -85.5 -45t-103.5 -17q-120 0 -189.5 68t-69.5 186q0 75 30 133t84.5 90t123.5 32q101 0 159.5 -65t58.5 -179v-35zM198.5 381q-30.5 -32 -37.5 -92h226q-2 61 -30 92.5t-78 31.5t-80.5 -32zM409 659
l-118 141h110l72 -141h-64zM209 553h-97l127 142h74l127 -142h-97l-67 82z" />
    <glyph glyph-name="uni1EC3" unicode="&#x1ec3;" horiz-adv-x="531" 
d="M494 222h-333q6 -68 41 -101t100 -33q81 0 148 52l36 -86q-34 -28 -85.5 -45t-103.5 -17q-120 0 -189.5 68t-69.5 186q0 75 30 133t84.5 90t123.5 32q101 0 159.5 -65t58.5 -179v-35zM198.5 381q-30.5 -32 -37.5 -92h226q-2 61 -30 92.5t-78 31.5t-80.5 -32zM432 659h-66
v19q0 18 12 27t33 18q21 7 21 14q0 6 -9 10.5t-27 4.5q-26 0 -59 -11l-17 47q45 18 90 18q47 0 75 -17.5t28 -44.5q0 -19 -12 -28.5t-35 -18.5q-17 -7 -25.5 -13t-8.5 -16v-9zM209 553h-97l127 142h74l127 -142h-97l-67 82z" />
    <glyph glyph-name="uni1EC5" unicode="&#x1ec5;" horiz-adv-x="531" 
d="M494 222h-333q6 -68 41 -101t100 -33q81 0 148 52l36 -86q-34 -28 -85.5 -45t-103.5 -17q-120 0 -189.5 68t-69.5 186q0 75 30 133t84.5 90t123.5 32q101 0 159.5 -65t58.5 -179v-35zM198.5 381q-30.5 -32 -37.5 -92h226q-2 61 -30 92.5t-78 31.5t-80.5 -32zM136 785
q29 29 72 29q19 0 35 -4.5t44 -15.5q15 -6 30.5 -11t26.5 -5q20 0 31 9.5t13 25.5h57q0 -44 -29 -73t-72 -29q-19 0 -35 4.5t-44 15.5q-15 6 -30.5 11t-26.5 5q-20 0 -31 -9.5t-13 -25.5h-57q0 44 29 73zM209 553h-97l127 142h74l127 -142h-97l-67 82z" />
    <glyph glyph-name="uni0205" unicode="&#x205;" horiz-adv-x="531" 
d="M494 222h-333q6 -68 41 -101t100 -33q81 0 148 52l36 -86q-34 -28 -85.5 -45t-103.5 -17q-120 0 -189.5 68t-69.5 186q0 75 30 133t84.5 90t123.5 32q101 0 159.5 -65t58.5 -179v-35zM198.5 381q-30.5 -32 -37.5 -92h226q-2 61 -30 92.5t-78 31.5t-80.5 -32zM182 553
l-78 204h96l38 -204h-56zM314 553l-78 204h96l38 -204h-56z" />
    <glyph glyph-name="edieresis" unicode="&#xeb;" horiz-adv-x="531" 
d="M494 222h-333q6 -68 41 -101t100 -33q81 0 148 52l36 -86q-34 -28 -85.5 -45t-103.5 -17q-120 0 -189.5 68t-69.5 186q0 75 30 133t84.5 90t123.5 32q101 0 159.5 -65t58.5 -179v-35zM198.5 381q-30.5 -32 -37.5 -92h226q-2 61 -30 92.5t-78 31.5t-80.5 -32zM124 712h120
v-114h-120v114zM308 712h120v-114h-120v114z" />
    <glyph glyph-name="edotaccent" unicode="&#x117;" horiz-adv-x="531" 
d="M494 222h-333q6 -68 41 -101t100 -33q81 0 148 52l36 -86q-34 -28 -85.5 -45t-103.5 -17q-120 0 -189.5 68t-69.5 186q0 75 30 133t84.5 90t123.5 32q101 0 159.5 -65t58.5 -179v-35zM198.5 381q-30.5 -32 -37.5 -92h226q-2 61 -30 92.5t-78 31.5t-80.5 -32zM207 716h138
v-123h-138v123z" />
    <glyph glyph-name="uni1EB9" unicode="&#x1eb9;" horiz-adv-x="531" 
d="M494 222h-333q6 -68 41 -101t100 -33q81 0 148 52l36 -86q-34 -28 -85.5 -45t-103.5 -17q-120 0 -189.5 68t-69.5 186q0 75 30 133t84.5 90t123.5 32q101 0 159.5 -65t58.5 -179v-35zM198.5 381q-30.5 -32 -37.5 -92h226q-2 61 -30 92.5t-78 31.5t-80.5 -32zM233 -77h122
v-116h-122v116z" />
    <glyph glyph-name="egrave" unicode="&#xe8;" horiz-adv-x="531" 
d="M494 222h-333q6 -68 41 -101t100 -33q81 0 148 52l36 -86q-34 -28 -85.5 -45t-103.5 -17q-120 0 -189.5 68t-69.5 186q0 75 30 133t84.5 90t123.5 32q101 0 159.5 -65t58.5 -179v-35zM198.5 381q-30.5 -32 -37.5 -92h226q-2 61 -30 92.5t-78 31.5t-80.5 -32zM236 553
l-146 204h127l99 -204h-80z" />
    <glyph glyph-name="uni1EBB" unicode="&#x1ebb;" horiz-adv-x="531" 
d="M494 222h-333q6 -68 41 -101t100 -33q81 0 148 52l36 -86q-34 -28 -85.5 -45t-103.5 -17q-120 0 -189.5 68t-69.5 186q0 75 30 133t84.5 90t123.5 32q101 0 159.5 -65t58.5 -179v-35zM198.5 381q-30.5 -32 -37.5 -92h226q-2 61 -30 92.5t-78 31.5t-80.5 -32zM311 553h-67
v27q0 21 10 35t28 29q13 12 18 18t5 14q0 24 -37 24q-26 0 -53 -10l-18 52q42 18 83 18q52 0 81 -20.5t29 -51.5q0 -23 -11 -37.5t-34 -31.5q-17 -12 -25.5 -22t-8.5 -24v-20z" />
    <glyph glyph-name="uni0207" unicode="&#x207;" horiz-adv-x="531" 
d="M494 222h-333q6 -68 41 -101t100 -33q81 0 148 52l36 -86q-34 -28 -85.5 -45t-103.5 -17q-120 0 -189.5 68t-69.5 186q0 75 30 133t84.5 90t123.5 32q101 0 159.5 -65t58.5 -179v-35zM198.5 381q-30.5 -32 -37.5 -92h226q-2 61 -30 92.5t-78 31.5t-80.5 -32zM386.5 705.5
q48.5 -34.5 67.5 -103.5l-63 -26q-43 83 -115 83t-115 -83l-63 26q19 68 67.5 103t110.5 35t110.5 -34.5z" />
    <glyph glyph-name="emacron" unicode="&#x113;" horiz-adv-x="531" 
d="M494 222h-333q6 -68 41 -101t100 -33q81 0 148 52l36 -86q-34 -28 -85.5 -45t-103.5 -17q-120 0 -189.5 68t-69.5 186q0 75 30 133t84.5 90t123.5 32q101 0 159.5 -65t58.5 -179v-35zM198.5 381q-30.5 -32 -37.5 -92h226q-2 61 -30 92.5t-78 31.5t-80.5 -32zM122 614v81
h308v-81h-308z" />
    <glyph glyph-name="uni1E17" unicode="&#x1e17;" horiz-adv-x="531" 
d="M494 222h-333q6 -68 41 -101t100 -33q81 0 148 52l36 -86q-34 -28 -85.5 -45t-103.5 -17q-120 0 -189.5 68t-69.5 186q0 75 30 133t84.5 90t123.5 32q101 0 159.5 -65t58.5 -179v-35zM198.5 381q-30.5 -32 -37.5 -92h226q-2 61 -30 92.5t-78 31.5t-80.5 -32zM122 614v81
h308v-81h-308zM316 744h-80l99 204h127z" />
    <glyph glyph-name="uni1E15" unicode="&#x1e15;" horiz-adv-x="531" 
d="M494 222h-333q6 -68 41 -101t100 -33q81 0 148 52l36 -86q-34 -28 -85.5 -45t-103.5 -17q-120 0 -189.5 68t-69.5 186q0 75 30 133t84.5 90t123.5 32q101 0 159.5 -65t58.5 -179v-35zM198.5 381q-30.5 -32 -37.5 -92h226q-2 61 -30 92.5t-78 31.5t-80.5 -32zM122 614v81
h308v-81h-308zM236 744l-146 204h127l99 -204h-80z" />
    <glyph glyph-name="eogonek" unicode="&#x119;" horiz-adv-x="531" 
d="M494 222h-333q6 -68 41 -101t100 -33q81 0 148 52l36 -85q-14 -12 -55 -33q-44 -23 -62 -44t-18 -47q0 -28 16.5 -42.5t45.5 -14.5q28 0 55 13l17 -61q-40 -21 -95 -21q-54 0 -88.5 30.5t-34.5 77.5q0 46 33 79h-3q-120 0 -189.5 68t-69.5 186q0 75 30 133t84.5 90
t123.5 32q101 0 159.5 -65t58.5 -179v-35zM198.5 380.5q-30.5 -32.5 -37.5 -91.5h226q-2 61 -30 92.5t-78 31.5t-80.5 -32.5z" />
    <glyph glyph-name="uni1EBD" unicode="&#x1ebd;" horiz-adv-x="531" 
d="M494 222h-333q6 -68 41 -101t100 -33q81 0 148 52l36 -86q-34 -28 -85.5 -45t-103.5 -17q-120 0 -189.5 68t-69.5 186q0 75 30 133t84.5 90t123.5 32q101 0 159.5 -65t58.5 -179v-35zM198.5 381q-30.5 -32 -37.5 -92h226q-2 61 -30 92.5t-78 31.5t-80.5 -32zM135 690.5
q28 34.5 73 34.5q19 0 36 -7.5t43 -22.5q19 -12 32 -18t25 -6q20 0 31 14t13 37h57q0 -66 -28 -100t-73 -34q-19 0 -36 7.5t-43 22.5q-19 12 -32 18t-25 6q-20 0 -31 -14t-13 -37h-57q0 65 28 99.5z" />
    <glyph glyph-name="uni0259" unicode="&#x259;" horiz-adv-x="531" 
d="M374.5 470q56.5 -31 87 -88.5t30.5 -134.5q0 -76 -28.5 -133.5t-81 -89.5t-120.5 -32q-105 0 -165 65t-60 180v34h335q-6 69 -40 102t-97 33q-72 0 -155 -52l-35 85q37 29 90 45.5t108 16.5q75 0 131.5 -31zM337 112.5q30 31.5 36 92.5h-226q3 -60 31 -92t79 -32
q50 0 80 31.5z" />
    <glyph glyph-name="f" unicode="f" horiz-adv-x="358" 
d="M224 489h129v-94h-129v-395h-125v395h-94v94h94q0 105 54.5 158t169.5 59l49 3l8 -93l-47 -2q-59 -3 -84 -26.5t-25 -75.5v-23z" />
    <glyph glyph-name="g" unicode="g" horiz-adv-x="605" 
d="M541 489v-444q0 -115 -63.5 -174t-187.5 -59q-64 0 -123 16.5t-103 46.5l35 88q91 -55 188 -55q130 0 130 128v64q-22 -41 -64 -63.5t-96 -22.5q-64 0 -113.5 30.5t-77.5 85.5t-28 127t27.5 127.5t77.5 86t114 30.5q54 0 96 -22.5t64 -63.5v74h124zM383.5 150
q33.5 39 33.5 107q0 69 -33.5 108t-93.5 39q-59 0 -93 -39t-34 -108q0 -67 34 -106.5t93 -39.5q60 0 93.5 39z" />
    <glyph glyph-name="gbreve" unicode="&#x11f;" horiz-adv-x="605" 
d="M541 489v-444q0 -115 -63.5 -174t-187.5 -59q-64 0 -123 16.5t-103 46.5l35 88q91 -55 188 -55q130 0 130 128v64q-22 -41 -64 -63.5t-96 -22.5q-64 0 -113.5 30.5t-77.5 85.5t-28 127t27.5 127.5t77.5 86t114 30.5q54 0 96 -22.5t64 -63.5v74h124zM383.5 150
q33.5 39 33.5 107q0 69 -33.5 108t-93.5 39q-59 0 -93 -39t-34 -108q0 -67 34 -106.5t93 -39.5q60 0 93.5 39zM193.5 613.5q-48.5 34.5 -67.5 103.5l63 26q43 -83 115 -83t115 83l63 -26q-19 -68 -67.5 -103t-110.5 -35t-110.5 34.5z" />
    <glyph glyph-name="gcaron" unicode="&#x1e7;" horiz-adv-x="605" 
d="M541 489v-444q0 -115 -63.5 -174t-187.5 -59q-64 0 -123 16.5t-103 46.5l35 88q91 -55 188 -55q130 0 130 128v64q-22 -41 -64 -63.5t-96 -22.5q-64 0 -113.5 30.5t-77.5 85.5t-28 127t27.5 127.5t77.5 86t114 30.5q54 0 96 -22.5t64 -63.5v74h124zM383.5 150
q33.5 39 33.5 107q0 69 -33.5 108t-93.5 39q-59 0 -93 -39t-34 -108q0 -67 34 -106.5t93 -39.5q60 0 93.5 39zM367 757h101l-125 -204h-78l-125 204h101l63 -126z" />
    <glyph glyph-name="gcircumflex" unicode="&#x11d;" horiz-adv-x="605" 
d="M541 489v-444q0 -115 -63.5 -174t-187.5 -59q-64 0 -123 16.5t-103 46.5l35 88q91 -55 188 -55q130 0 130 128v64q-22 -41 -64 -63.5t-96 -22.5q-64 0 -113.5 30.5t-77.5 85.5t-28 127t27.5 127.5t77.5 86t114 30.5q54 0 96 -22.5t64 -63.5v74h124zM383.5 150
q33.5 39 33.5 107q0 69 -33.5 108t-93.5 39q-59 0 -93 -39t-34 -108q0 -67 34 -106.5t93 -39.5q60 0 93.5 39zM241 553h-101l125 204h78l125 -204h-101l-63 126z" />
    <glyph glyph-name="gcommaaccent" unicode="&#x123;" horiz-adv-x="605" 
d="M541 489v-444q0 -115 -63.5 -174t-187.5 -59q-64 0 -123 16.5t-103 46.5l35 88q91 -55 188 -55q130 0 130 128v64q-22 -41 -64 -63.5t-96 -22.5q-64 0 -113.5 30.5t-77.5 85.5t-28 127t27.5 127.5t77.5 86t114 30.5q54 0 96 -22.5t64 -63.5v74h124zM383.5 150
q33.5 39 33.5 107q0 69 -33.5 108t-93.5 39q-59 0 -93 -39t-34 -108q0 -67 34 -106.5t93 -39.5q60 0 93.5 39zM369 685v-103h-130v62q0 44 12.5 77.5t43.5 61.5l48 -33q-31 -30 -36 -65h62z" />
    <glyph glyph-name="gdotaccent" unicode="&#x121;" horiz-adv-x="605" 
d="M541 489v-444q0 -115 -63.5 -174t-187.5 -59q-64 0 -123 16.5t-103 46.5l35 88q91 -55 188 -55q130 0 130 128v64q-22 -41 -64 -63.5t-96 -22.5q-64 0 -113.5 30.5t-77.5 85.5t-28 127t27.5 127.5t77.5 86t114 30.5q54 0 96 -22.5t64 -63.5v74h124zM383.5 150
q33.5 39 33.5 107q0 69 -33.5 108t-93.5 39q-59 0 -93 -39t-34 -108q0 -67 34 -106.5t93 -39.5q60 0 93.5 39zM235 716h138v-123h-138v123z" />
    <glyph glyph-name="uni1E21" unicode="&#x1e21;" horiz-adv-x="605" 
d="M541 489v-444q0 -115 -63.5 -174t-187.5 -59q-64 0 -123 16.5t-103 46.5l35 88q91 -55 188 -55q130 0 130 128v64q-22 -41 -64 -63.5t-96 -22.5q-64 0 -113.5 30.5t-77.5 85.5t-28 127t27.5 127.5t77.5 86t114 30.5q54 0 96 -22.5t64 -63.5v74h124zM383.5 150
q33.5 39 33.5 107q0 69 -33.5 108t-93.5 39q-59 0 -93 -39t-34 -108q0 -67 34 -106.5t93 -39.5q60 0 93.5 39zM150 614v81h308v-81h-308z" />
    <glyph glyph-name="h" unicode="h" horiz-adv-x="585" 
d="M480 451q43 -50 43 -151v-300h-125v293q0 57 -21.5 83t-67.5 26q-54 0 -86.5 -34t-32.5 -91v-277h-125v705h125v-284q25 39 66.5 59.5t92.5 20.5q88 0 131 -50z" />
    <glyph glyph-name="hbar" unicode="&#x127;" horiz-adv-x="585" 
d="M480 451q43 -50 43 -151v-300h-125v293q0 57 -21.5 83t-67.5 26q-54 0 -86.5 -34t-32.5 -91v-277h-125v541h-88v89h88v75h125v-75h188v-89h-188v-120q25 39 66.5 59.5t92.5 20.5q88 0 131 -50z" />
    <glyph glyph-name="uni1E2B" unicode="&#x1e2b;" horiz-adv-x="585" 
d="M480 451q43 -50 43 -151v-300h-125v293q0 57 -21.5 83t-67.5 26q-54 0 -86.5 -34t-32.5 -91v-277h-125v705h125v-284q25 39 66.5 59.5t92.5 20.5q88 0 131 -50zM183.5 -186.5q-48.5 34.5 -67.5 103.5l63 26q43 -83 115 -83t115 83l63 -26q-19 -68 -67.5 -103t-110.5 -35
t-110.5 34.5z" />
    <glyph glyph-name="hcircumflex" unicode="&#x125;" horiz-adv-x="585" 
d="M480 451q43 -50 43 -151v-300h-125v293q0 57 -21.5 83t-67.5 26q-54 0 -86.5 -34t-32.5 -91v-277h-125v705h125v-284q25 39 66.5 59.5t92.5 20.5q88 0 131 -50zM62 765h-98l127 154h74l127 -154h-98l-66 92z" />
    <glyph glyph-name="uni1E25" unicode="&#x1e25;" horiz-adv-x="585" 
d="M480 451q43 -50 43 -151v-300h-125v293q0 57 -21.5 83t-67.5 26q-54 0 -86.5 -34t-32.5 -91v-277h-125v705h125v-284q25 39 66.5 59.5t92.5 20.5q88 0 131 -50zM233 -77h122v-116h-122v116z" />
    <glyph glyph-name="i" unicode="i" horiz-adv-x="254" 
d="M65 0v489h125v-489h-125zM58 716h138v-123h-138v123z" />
    <glyph glyph-name="dotlessi" unicode="&#x131;" horiz-adv-x="254" 
d="M65 0v489h125v-489h-125z" />
    <glyph glyph-name="iacute" unicode="&#xed;" horiz-adv-x="254" 
d="M65 0v489h125v-489h-125zM167 553h-80l99 204h127z" />
    <glyph glyph-name="ibreve" unicode="&#x12d;" horiz-adv-x="254" 
d="M65 0v489h125v-489h-125zM16.5 613.5q-48.5 34.5 -67.5 103.5l63 26q43 -83 115 -83t115 83l63 -26q-19 -68 -67.5 -103t-110.5 -35t-110.5 34.5z" />
    <glyph glyph-name="icircumflex" unicode="&#xee;" horiz-adv-x="254" 
d="M65 0v489h125v-489h-125zM64 553h-101l125 204h78l125 -204h-101l-63 126z" />
    <glyph glyph-name="uni0209" unicode="&#x209;" horiz-adv-x="254" 
d="M65 0v489h125v-489h-125zM33 553l-78 204h96l38 -204h-56zM165 553l-78 204h96l38 -204h-56z" />
    <glyph glyph-name="idieresis" unicode="&#xef;" horiz-adv-x="254" 
d="M65 0v489h125v-489h-125zM-25 712h120v-114h-120v114zM159 712h120v-114h-120v114z" />
    <glyph glyph-name="uni1E2F" unicode="&#x1e2f;" horiz-adv-x="254" 
d="M65 0v489h125v-489h-125zM-25 712h120v-114h-120v114zM159 712h120v-114h-120v114zM167 744h-80l99 204h127z" />
    <glyph glyph-name="i.loclTRK" horiz-adv-x="254" 
d="M65 0v489h125v-489h-125zM58 716h138v-123h-138v123z" />
    <glyph glyph-name="uni1ECB" unicode="&#x1ecb;" horiz-adv-x="254" 
d="M65 0v489h125v-489h-125zM58 716h138v-123h-138v123zM66 -77h122v-116h-122v116z" />
    <glyph glyph-name="igrave" unicode="&#xec;" horiz-adv-x="254" 
d="M65 0v489h125v-489h-125zM87 553l-146 204h127l99 -204h-80z" />
    <glyph glyph-name="uni1EC9" unicode="&#x1ec9;" horiz-adv-x="254" 
d="M65 0v489h125v-489h-125zM162 553h-67v27q0 21 10 35t28 29q13 12 18 18t5 14q0 24 -37 24q-26 0 -53 -10l-18 52q42 18 83 18q52 0 81 -20.5t29 -51.5q0 -23 -11 -37.5t-34 -31.5q-17 -12 -25.5 -22t-8.5 -24v-20z" />
    <glyph glyph-name="uni020B" unicode="&#x20b;" horiz-adv-x="254" 
d="M65 0v489h125v-489h-125zM237.5 705.5q48.5 -34.5 67.5 -103.5l-63 -26q-43 83 -115 83t-115 -83l-63 26q19 68 67.5 103t110.5 35t110.5 -34.5z" />
    <glyph glyph-name="imacron" unicode="&#x12b;" horiz-adv-x="254" 
d="M65 0v489h125v-489h-125zM-27 614v81h308v-81h-308z" />
    <glyph glyph-name="iogonek" unicode="&#x12f;" horiz-adv-x="254" 
d="M196 716v-123h-138v123h138zM230 -174q-44 -21 -95 -21q-54 0 -88.5 30t-34.5 79q0 61 53 98v477h125v-489h-9q-39 0 -62 -19.5t-23 -49.5q0 -28 16 -42.5t45 -14.5q27 0 56 13z" />
    <glyph glyph-name="itilde" unicode="&#x129;" horiz-adv-x="254" 
d="M65 0v489h125v-489h-125zM-14 690.5q28 34.5 73 34.5q19 0 36 -7.5t43 -22.5q19 -12 32 -18t25 -6q20 0 31 14t13 37h57q0 -66 -28 -100t-73 -34q-19 0 -36 7.5t-43 22.5q-19 12 -32 18t-25 6q-20 0 -31 -14t-13 -37h-57q0 65 28 99.5z" />
    <glyph glyph-name="j" unicode="j" horiz-adv-x="254" 
d="M190 22q0 -103 -48 -150t-160 -54l-47 -3l-9 91l49 4q46 3 68 24.5t22 65.5v489h125v-467zM57 716h138v-123h-138v123z" />
    <glyph glyph-name="uni0237" unicode="&#x237;" horiz-adv-x="254" 
d="M190 22q0 -103 -48 -150t-160 -54l-47 -3l-9 91l49 4q46 3 68 24.5t22 65.5v489h125v-467z" />
    <glyph glyph-name="jcircumflex" unicode="&#x135;" horiz-adv-x="254" 
d="M190 22q0 -103 -48 -150t-160 -54l-47 -3l-9 91l49 4q46 3 68 24.5t22 65.5v489h125v-467zM63 553h-101l125 204h78l125 -204h-101l-63 126z" />
    <glyph glyph-name="k" unicode="k" horiz-adv-x="536" 
d="M555 0h-155l-210 223v-223h-125v705h125v-430l197 213h152l-220 -234z" />
    <glyph glyph-name="kcommaaccent" unicode="&#x137;" horiz-adv-x="536" 
d="M555 0h-155l-210 223v-223h-125v705h125v-430l197 213h152l-220 -234zM333 -68v-62q0 -44 -12.5 -77t-44.5 -62l-47 33q30 30 35 66h-61v102h130z" />
    <glyph glyph-name="kgreenlandic" unicode="&#x138;" horiz-adv-x="536" 
d="M555 0h-155l-210 223v-223h-125v489h125v-214l197 213h152l-220 -234z" />
    <glyph glyph-name="l" unicode="l" horiz-adv-x="254" 
d="M65 0v705h125v-705h-125z" />
    <glyph glyph-name="lacute" unicode="&#x13a;" horiz-adv-x="254" 
d="M65 0v705h125v-705h-125zM167 765h-80l102 154h121z" />
    <glyph glyph-name="lcaron" unicode="&#x13e;" horiz-adv-x="254" 
d="M65 0v705h125v-705h-125zM266 513h-47v192h73z" />
    <glyph glyph-name="lcommaaccent" unicode="&#x13c;" horiz-adv-x="254" 
d="M65 0v705h125v-705h-125zM192 -68v-62q0 -44 -12.5 -77t-44.5 -62l-47 33q30 30 35 66h-61v102h130z" />
    <glyph glyph-name="ldot" unicode="&#x140;" horiz-adv-x="332" 
d="M65 0v705h125v-705h-125zM223 414h140v-124h-140v124z" />
    <glyph glyph-name="uni1E37" unicode="&#x1e37;" horiz-adv-x="254" 
d="M65 0v705h125v-705h-125zM66 -77h122v-116h-122v116z" />
    <glyph glyph-name="uni01C9" unicode="&#x1c9;" horiz-adv-x="508" 
d="M65 0v705h125v-705h-125zM444 22q0 -103 -48 -150t-160 -54l-47 -3l-9 91l49 4q46 3 68 24.5t22 65.5v489h125v-467zM311 716h138v-123h-138v123z" />
    <glyph glyph-name="uni1E3B" unicode="&#x1e3b;" horiz-adv-x="254" 
d="M65 0v705h125v-705h-125zM-27 -174v77h308v-77h-308z" />
    <glyph glyph-name="lslash" unicode="&#x142;" horiz-adv-x="326" 
d="M339 400l-114 -66v-334h-125v262l-65 -37l-48 84l113 65v331h125v-258l66 38z" />
    <glyph glyph-name="m" unicode="m" horiz-adv-x="873" 
d="M770 451.5q41 -49.5 41 -151.5v-300h-125v295q0 56 -19 81.5t-61 25.5q-50 0 -78 -34t-28 -95v-273h-125v295q0 56 -18.5 81.5t-61.5 25.5q-49 0 -77 -34t-28 -95v-273h-125v489h122v-69q22 40 61 60.5t89 20.5q111 0 147 -92q23 43 66 67.5t96 24.5q83 0 124 -49.5z" />
    <glyph glyph-name="uni1E43" unicode="&#x1e43;" horiz-adv-x="873" 
d="M770 451.5q41 -49.5 41 -151.5v-300h-125v295q0 56 -19 81.5t-61 25.5q-50 0 -78 -34t-28 -95v-273h-125v295q0 56 -18.5 81.5t-61.5 25.5q-49 0 -77 -34t-28 -95v-273h-125v489h122v-69q22 40 61 60.5t89 20.5q111 0 147 -92q23 43 66 67.5t96 24.5q83 0 124 -49.5z
M377 -77h122v-116h-122v116z" />
    <glyph glyph-name="n" unicode="n" horiz-adv-x="585" 
d="M480 451q43 -50 43 -151v-300h-125v293q0 57 -21.5 83t-67.5 26q-54 0 -86.5 -34t-32.5 -91v-277h-125v489h122v-73q25 41 67 63t95 22q88 0 131 -50z" />
    <glyph glyph-name="nacute" unicode="&#x144;" horiz-adv-x="585" 
d="M480 451q43 -50 43 -151v-300h-125v293q0 57 -21.5 83t-67.5 26q-54 0 -86.5 -34t-32.5 -91v-277h-125v489h122v-73q25 41 67 63t95 22q88 0 131 -50zM334 553h-80l99 204h127z" />
    <glyph glyph-name="napostrophe" unicode="&#x149;" horiz-adv-x="585" 
d="M212 757v-62q0 -44 -12.5 -77t-43.5 -62l-48 34q31 30 36 65h-62v102h130zM480 451q43 -50 43 -151v-300h-125v293q0 57 -21.5 83t-67.5 26q-54 0 -86.5 -34t-32.5 -91v-277h-125v489h122v-73q25 41 67 63t95 22q88 0 131 -50z" />
    <glyph glyph-name="ncaron" unicode="&#x148;" horiz-adv-x="585" 
d="M480 451q43 -50 43 -151v-300h-125v293q0 57 -21.5 83t-67.5 26q-54 0 -86.5 -34t-32.5 -91v-277h-125v489h122v-73q25 41 67 63t95 22q88 0 131 -50zM357 757h101l-125 -204h-78l-125 204h101l63 -126z" />
    <glyph glyph-name="ncommaaccent" unicode="&#x146;" horiz-adv-x="585" 
d="M480 451q43 -50 43 -151v-300h-125v293q0 57 -21.5 83t-67.5 26q-54 0 -86.5 -34t-32.5 -91v-277h-125v489h122v-73q25 41 67 63t95 22q88 0 131 -50zM359 -68v-62q0 -44 -12.5 -77t-44.5 -62l-47 33q30 30 35 66h-61v102h130z" />
    <glyph glyph-name="uni1E45" unicode="&#x1e45;" horiz-adv-x="585" 
d="M480 451q43 -50 43 -151v-300h-125v293q0 57 -21.5 83t-67.5 26q-54 0 -86.5 -34t-32.5 -91v-277h-125v489h122v-73q25 41 67 63t95 22q88 0 131 -50zM225 716h138v-123h-138v123z" />
    <glyph glyph-name="uni1E47" unicode="&#x1e47;" horiz-adv-x="585" 
d="M480 451q43 -50 43 -151v-300h-125v293q0 57 -21.5 83t-67.5 26q-54 0 -86.5 -34t-32.5 -91v-277h-125v489h122v-73q25 41 67 63t95 22q88 0 131 -50zM233 -77h122v-116h-122v116z" />
    <glyph glyph-name="eng" unicode="&#x14b;" horiz-adv-x="585" 
d="M523 300v-277q0 -102 -47.5 -149.5t-159.5 -54.5l-47 -3l-8 91l48 3q47 4 68 25.5t21 65.5v292q0 59 -22 84t-67 25q-53 0 -86 -33.5t-33 -91.5v-277h-125v489h122v-73q25 41 67 63t95 22q174 0 174 -201z" />
    <glyph glyph-name="uni01CC" unicode="&#x1cc;" horiz-adv-x="839" 
d="M480 451q43 -50 43 -151v-300h-125v293q0 57 -21.5 83t-67.5 26q-54 0 -86.5 -34t-32.5 -91v-277h-125v489h122v-73q25 41 67 63t95 22q88 0 131 -50zM775 22q0 -103 -48 -150t-160 -54l-47 -3l-9 91l49 4q46 3 68 24.5t22 65.5v489h125v-467zM642 716h138v-123h-138v123
z" />
    <glyph glyph-name="uni1E49" unicode="&#x1e49;" horiz-adv-x="585" 
d="M480 451q43 -50 43 -151v-300h-125v293q0 57 -21.5 83t-67.5 26q-54 0 -86.5 -34t-32.5 -91v-277h-125v489h122v-73q25 41 67 63t95 22q88 0 131 -50zM140 -174v77h308v-77h-308z" />
    <glyph glyph-name="ntilde" unicode="&#xf1;" horiz-adv-x="585" 
d="M480 451q43 -50 43 -151v-300h-125v293q0 57 -21.5 83t-67.5 26q-54 0 -86.5 -34t-32.5 -91v-277h-125v489h122v-73q25 41 67 63t95 22q88 0 131 -50zM153 690.5q28 34.5 73 34.5q19 0 36 -7.5t43 -22.5q19 -12 32 -18t25 -6q20 0 31 14t13 37h57q0 -66 -28 -100t-73 -34
q-19 0 -36 7.5t-43 22.5q-19 12 -32 18t-25 6q-20 0 -31 -14t-13 -37h-57q0 65 28 99.5z" />
    <glyph glyph-name="o" unicode="o" horiz-adv-x="575" 
d="M156.5 23q-56.5 31 -87.5 89t-31 135t31 134.5t87.5 88.5t131.5 31t131.5 -31t87 -88.5t30.5 -134.5t-30.5 -135t-87 -89t-131.5 -31t-131.5 31zM380 129q32 40 32 118q0 77 -32 117.5t-92 40.5t-92.5 -40.5t-32.5 -117.5q0 -78 32 -118t92 -40q61 0 93 40z" />
    <glyph glyph-name="oacute" unicode="&#xf3;" horiz-adv-x="575" 
d="M156.5 23q-56.5 31 -87.5 89t-31 135t31 134.5t87.5 88.5t131.5 31t131.5 -31t87 -88.5t30.5 -134.5t-30.5 -135t-87 -89t-131.5 -31t-131.5 31zM380 129q32 40 32 118q0 77 -32 117.5t-92 40.5t-92.5 -40.5t-32.5 -117.5q0 -78 32 -118t92 -40q61 0 93 40zM328 553h-80
l99 204h127z" />
    <glyph glyph-name="obreve" unicode="&#x14f;" horiz-adv-x="575" 
d="M156.5 23q-56.5 31 -87.5 89t-31 135t31 134.5t87.5 88.5t131.5 31t131.5 -31t87 -88.5t30.5 -134.5t-30.5 -135t-87 -89t-131.5 -31t-131.5 31zM380 129q32 40 32 118q0 77 -32 117.5t-92 40.5t-92.5 -40.5t-32.5 -117.5q0 -78 32 -118t92 -40q61 0 93 40zM177.5 613.5
q-48.5 34.5 -67.5 103.5l63 26q43 -83 115 -83t115 83l63 -26q-19 -68 -67.5 -103t-110.5 -35t-110.5 34.5z" />
    <glyph glyph-name="ocircumflex" unicode="&#xf4;" horiz-adv-x="575" 
d="M156.5 23q-56.5 31 -87.5 89t-31 135t31 134.5t87.5 88.5t131.5 31t131.5 -31t87 -88.5t30.5 -134.5t-30.5 -135t-87 -89t-131.5 -31t-131.5 31zM380 129q32 40 32 118q0 77 -32 117.5t-92 40.5t-92.5 -40.5t-32.5 -117.5q0 -78 32 -118t92 -40q61 0 93 40zM225 553h-101
l125 204h78l125 -204h-101l-63 126z" />
    <glyph glyph-name="uni1ED1" unicode="&#x1ed1;" horiz-adv-x="575" 
d="M156.5 23q-56.5 31 -87.5 89t-31 135t31 134.5t87.5 88.5t131.5 31t131.5 -31t87 -88.5t30.5 -134.5t-30.5 -135t-87 -89t-131.5 -31t-131.5 31zM380 129q32 40 32 118q0 77 -32 117.5t-92 40.5t-92.5 -40.5t-32.5 -117.5q0 -78 32 -118t92 -40q61 0 93 40zM443 659h-64
l79 141h110zM221 553h-97l127 142h74l127 -142h-97l-67 82z" />
    <glyph glyph-name="uni1ED9" unicode="&#x1ed9;" horiz-adv-x="575" 
d="M156.5 23q-56.5 31 -87.5 89t-31 135t31 134.5t87.5 88.5t131.5 31t131.5 -31t87 -88.5t30.5 -134.5t-30.5 -135t-87 -89t-131.5 -31t-131.5 31zM380 129q32 40 32 118q0 77 -32 117.5t-92 40.5t-92.5 -40.5t-32.5 -117.5q0 -78 32 -118t92 -40q61 0 93 40zM227 -77h122
v-116h-122v116zM225 553h-101l125 204h78l125 -204h-101l-63 126z" />
    <glyph glyph-name="uni1ED3" unicode="&#x1ed3;" horiz-adv-x="575" 
d="M156.5 23q-56.5 31 -87.5 89t-31 135t31 134.5t87.5 88.5t131.5 31t131.5 -31t87 -88.5t30.5 -134.5t-30.5 -135t-87 -89t-131.5 -31t-131.5 31zM380 129q32 40 32 118q0 77 -32 117.5t-92 40.5t-92.5 -40.5t-32.5 -117.5q0 -78 32 -118t92 -40q61 0 93 40zM421 659
l-118 141h110l72 -141h-64zM221 553h-97l127 142h74l127 -142h-97l-67 82z" />
    <glyph glyph-name="uni1ED5" unicode="&#x1ed5;" horiz-adv-x="575" 
d="M156.5 23q-56.5 31 -87.5 89t-31 135t31 134.5t87.5 88.5t131.5 31t131.5 -31t87 -88.5t30.5 -134.5t-30.5 -135t-87 -89t-131.5 -31t-131.5 31zM380 129q32 40 32 118q0 77 -32 117.5t-92 40.5t-92.5 -40.5t-32.5 -117.5q0 -78 32 -118t92 -40q61 0 93 40zM444 659h-66
v19q0 18 12 27t33 18q21 7 21 14q0 6 -9 10.5t-27 4.5q-26 0 -59 -11l-17 47q45 18 90 18q47 0 75 -17.5t28 -44.5q0 -19 -12 -28.5t-35 -18.5q-17 -7 -25.5 -13t-8.5 -16v-9zM221 553h-97l127 142h74l127 -142h-97l-67 82z" />
    <glyph glyph-name="uni1ED7" unicode="&#x1ed7;" horiz-adv-x="575" 
d="M156.5 23q-56.5 31 -87.5 89t-31 135t31 134.5t87.5 88.5t131.5 31t131.5 -31t87 -88.5t30.5 -134.5t-30.5 -135t-87 -89t-131.5 -31t-131.5 31zM380 129q32 40 32 118q0 77 -32 117.5t-92 40.5t-92.5 -40.5t-32.5 -117.5q0 -78 32 -118t92 -40q61 0 93 40zM148 785
q29 29 72 29q19 0 35 -4.5t44 -15.5q15 -6 30.5 -11t26.5 -5q20 0 31 9.5t13 25.5h57q0 -44 -29 -73t-72 -29q-19 0 -35 4.5t-44 15.5q-15 6 -30.5 11t-26.5 5q-20 0 -31 -9.5t-13 -25.5h-57q0 44 29 73zM221 553h-97l127 142h74l127 -142h-97l-67 82z" />
    <glyph glyph-name="uni020D" unicode="&#x20d;" horiz-adv-x="575" 
d="M156.5 23q-56.5 31 -87.5 89t-31 135t31 134.5t87.5 88.5t131.5 31t131.5 -31t87 -88.5t30.5 -134.5t-30.5 -135t-87 -89t-131.5 -31t-131.5 31zM380 129q32 40 32 118q0 77 -32 117.5t-92 40.5t-92.5 -40.5t-32.5 -117.5q0 -78 32 -118t92 -40q61 0 93 40zM194 553
l-78 204h96l38 -204h-56zM326 553l-78 204h96l38 -204h-56z" />
    <glyph glyph-name="odieresis" unicode="&#xf6;" horiz-adv-x="575" 
d="M156.5 23q-56.5 31 -87.5 89t-31 135t31 134.5t87.5 88.5t131.5 31t131.5 -31t87 -88.5t30.5 -134.5t-30.5 -135t-87 -89t-131.5 -31t-131.5 31zM380 129q32 40 32 118q0 77 -32 117.5t-92 40.5t-92.5 -40.5t-32.5 -117.5q0 -78 32 -118t92 -40q61 0 93 40zM136 712h120
v-114h-120v114zM320 712h120v-114h-120v114z" />
    <glyph glyph-name="uni022B" unicode="&#x22b;" horiz-adv-x="575" 
d="M156.5 23q-56.5 31 -87.5 89t-31 135t31 134.5t87.5 88.5t131.5 31t131.5 -31t87 -88.5t30.5 -134.5t-30.5 -135t-87 -89t-131.5 -31t-131.5 31zM380 129q32 40 32 118q0 77 -32 117.5t-92 40.5t-92.5 -40.5t-32.5 -117.5q0 -78 32 -118t92 -40q61 0 93 40zM136 712h120
v-114h-120v114zM320 712h120v-114h-120v114zM134 805v81h308v-81h-308z" />
    <glyph glyph-name="uni0231" unicode="&#x231;" horiz-adv-x="575" 
d="M156.5 23q-56.5 31 -87.5 89t-31 135t31 134.5t87.5 88.5t131.5 31t131.5 -31t87 -88.5t30.5 -134.5t-30.5 -135t-87 -89t-131.5 -31t-131.5 31zM380 129q32 40 32 118q0 77 -32 117.5t-92 40.5t-92.5 -40.5t-32.5 -117.5q0 -78 32 -118t92 -40q61 0 93 40zM219 716h138
v-123h-138v123zM134 805v81h308v-81h-308z" />
    <glyph glyph-name="uni1ECD" unicode="&#x1ecd;" horiz-adv-x="575" 
d="M156.5 23q-56.5 31 -87.5 89t-31 135t31 134.5t87.5 88.5t131.5 31t131.5 -31t87 -88.5t30.5 -134.5t-30.5 -135t-87 -89t-131.5 -31t-131.5 31zM380 129q32 40 32 118q0 77 -32 117.5t-92 40.5t-92.5 -40.5t-32.5 -117.5q0 -78 32 -118t92 -40q61 0 93 40zM227 -77h122
v-116h-122v116z" />
    <glyph glyph-name="ograve" unicode="&#xf2;" horiz-adv-x="575" 
d="M156.5 23q-56.5 31 -87.5 89t-31 135t31 134.5t87.5 88.5t131.5 31t131.5 -31t87 -88.5t30.5 -134.5t-30.5 -135t-87 -89t-131.5 -31t-131.5 31zM380 129q32 40 32 118q0 77 -32 117.5t-92 40.5t-92.5 -40.5t-32.5 -117.5q0 -78 32 -118t92 -40q61 0 93 40zM248 553
l-146 204h127l99 -204h-80z" />
    <glyph glyph-name="uni1ECF" unicode="&#x1ecf;" horiz-adv-x="575" 
d="M156.5 23q-56.5 31 -87.5 89t-31 135t31 134.5t87.5 88.5t131.5 31t131.5 -31t87 -88.5t30.5 -134.5t-30.5 -135t-87 -89t-131.5 -31t-131.5 31zM380 129q32 40 32 118q0 77 -32 117.5t-92 40.5t-92.5 -40.5t-32.5 -117.5q0 -78 32 -118t92 -40q61 0 93 40zM323 553h-67
v27q0 21 10 35t28 29q13 12 18 18t5 14q0 24 -37 24q-26 0 -53 -10l-18 52q42 18 83 18q52 0 81 -20.5t29 -51.5q0 -23 -11 -37.5t-34 -31.5q-17 -12 -25.5 -22t-8.5 -24v-20z" />
    <glyph glyph-name="ohorn" unicode="&#x1a1;" horiz-adv-x="575" 
d="M529 492.5q-25 -37.5 -69 -53.5q38 -33 57.5 -82.5t19.5 -110.5q0 -77 -30.5 -134.5t-87 -88.5t-131.5 -31t-131.5 31t-87.5 88.5t-31 134.5q0 78 31 135.5t87 88.5t130 31q14 0 54 -5l25 -2q38 0 59 23t21 81v18h109v-34q0 -52 -25 -89.5zM380 129q32 40 32 118
q0 77 -32 117.5t-92 40.5t-92.5 -40.5t-32.5 -117.5q0 -78 32 -118t92 -40q61 0 93 40z" />
    <glyph glyph-name="uni1EDB" unicode="&#x1edb;" horiz-adv-x="575" 
d="M529 492.5q-25 -37.5 -69 -53.5q38 -33 57.5 -82.5t19.5 -110.5q0 -77 -30.5 -134.5t-87 -88.5t-131.5 -31t-131.5 31t-87.5 88.5t-31 134.5q0 78 31 135.5t87 88.5t130 31q14 0 54 -5l25 -2q38 0 59 23t21 81v18h109v-34q0 -52 -25 -89.5zM380 129q32 40 32 118
q0 77 -32 117.5t-92 40.5t-92.5 -40.5t-32.5 -117.5q0 -78 32 -118t92 -40q61 0 93 40zM328 553h-80l99 204h127z" />
    <glyph glyph-name="uni1EE3" unicode="&#x1ee3;" horiz-adv-x="575" 
d="M529 492.5q-25 -37.5 -69 -53.5q38 -33 57.5 -82.5t19.5 -110.5q0 -77 -30.5 -134.5t-87 -88.5t-131.5 -31t-131.5 31t-87.5 88.5t-31 134.5q0 78 31 135.5t87 88.5t130 31q14 0 54 -5l25 -2q38 0 59 23t21 81v18h109v-34q0 -52 -25 -89.5zM380 129q32 40 32 118
q0 77 -32 117.5t-92 40.5t-92.5 -40.5t-32.5 -117.5q0 -78 32 -118t92 -40q61 0 93 40zM227 -77h122v-116h-122v116z" />
    <glyph glyph-name="uni1EDD" unicode="&#x1edd;" horiz-adv-x="575" 
d="M529 492.5q-25 -37.5 -69 -53.5q38 -33 57.5 -82.5t19.5 -110.5q0 -77 -30.5 -134.5t-87 -88.5t-131.5 -31t-131.5 31t-87.5 88.5t-31 134.5q0 78 31 135.5t87 88.5t130 31q14 0 54 -5l25 -2q38 0 59 23t21 81v18h109v-34q0 -52 -25 -89.5zM380 129q32 40 32 118
q0 77 -32 117.5t-92 40.5t-92.5 -40.5t-32.5 -117.5q0 -78 32 -118t92 -40q61 0 93 40zM248 553l-146 204h127l99 -204h-80z" />
    <glyph glyph-name="uni1EDF" unicode="&#x1edf;" horiz-adv-x="575" 
d="M529 492.5q-25 -37.5 -69 -53.5q38 -33 57.5 -82.5t19.5 -110.5q0 -77 -30.5 -134.5t-87 -88.5t-131.5 -31t-131.5 31t-87.5 88.5t-31 134.5q0 78 31 135.5t87 88.5t130 31q14 0 54 -5l25 -2q38 0 59 23t21 81v18h109v-34q0 -52 -25 -89.5zM380 129q32 40 32 118
q0 77 -32 117.5t-92 40.5t-92.5 -40.5t-32.5 -117.5q0 -78 32 -118t92 -40q61 0 93 40zM323 553h-67v27q0 21 10 35t28 29q13 12 18 18t5 14q0 24 -37 24q-26 0 -53 -10l-18 52q42 18 83 18q52 0 81 -20.5t29 -51.5q0 -23 -11 -37.5t-34 -31.5q-17 -12 -25.5 -22t-8.5 -24
v-20z" />
    <glyph glyph-name="uni1EE1" unicode="&#x1ee1;" horiz-adv-x="575" 
d="M529 492.5q-25 -37.5 -69 -53.5q38 -33 57.5 -82.5t19.5 -110.5q0 -77 -30.5 -134.5t-87 -88.5t-131.5 -31t-131.5 31t-87.5 88.5t-31 134.5q0 78 31 135.5t87 88.5t130 31q14 0 54 -5l25 -2q38 0 59 23t21 81v18h109v-34q0 -52 -25 -89.5zM380 129q32 40 32 118
q0 77 -32 117.5t-92 40.5t-92.5 -40.5t-32.5 -117.5q0 -78 32 -118t92 -40q61 0 93 40zM147 690.5q28 34.5 73 34.5q19 0 36 -7.5t43 -22.5q19 -12 32 -18t25 -6q20 0 31 14t13 37h57q0 -66 -28 -100t-73 -34q-19 0 -36 7.5t-43 22.5q-19 12 -32 18t-25 6q-20 0 -31 -14
t-13 -37h-57q0 65 28 99.5z" />
    <glyph glyph-name="ohungarumlaut" unicode="&#x151;" horiz-adv-x="575" 
d="M156.5 23q-56.5 31 -87.5 89t-31 135t31 134.5t87.5 88.5t131.5 31t131.5 -31t87 -88.5t30.5 -134.5t-30.5 -135t-87 -89t-131.5 -31t-131.5 31zM380 129q32 40 32 118q0 77 -32 117.5t-92 40.5t-92.5 -40.5t-32.5 -117.5q0 -78 32 -118t92 -40q61 0 93 40zM250 553h-56
l38 204h96zM382 553h-56l38 204h96z" />
    <glyph glyph-name="uni020F" unicode="&#x20f;" horiz-adv-x="575" 
d="M156.5 23q-56.5 31 -87.5 89t-31 135t31 134.5t87.5 88.5t131.5 31t131.5 -31t87 -88.5t30.5 -134.5t-30.5 -135t-87 -89t-131.5 -31t-131.5 31zM380 129q32 40 32 118q0 77 -32 117.5t-92 40.5t-92.5 -40.5t-32.5 -117.5q0 -78 32 -118t92 -40q61 0 93 40zM398.5 705.5
q48.5 -34.5 67.5 -103.5l-63 -26q-43 83 -115 83t-115 -83l-63 26q19 68 67.5 103t110.5 35t110.5 -34.5z" />
    <glyph glyph-name="omacron" unicode="&#x14d;" horiz-adv-x="575" 
d="M156.5 23q-56.5 31 -87.5 89t-31 135t31 134.5t87.5 88.5t131.5 31t131.5 -31t87 -88.5t30.5 -134.5t-30.5 -135t-87 -89t-131.5 -31t-131.5 31zM380 129q32 40 32 118q0 77 -32 117.5t-92 40.5t-92.5 -40.5t-32.5 -117.5q0 -78 32 -118t92 -40q61 0 93 40zM134 614v81
h308v-81h-308z" />
    <glyph glyph-name="uni1E53" unicode="&#x1e53;" horiz-adv-x="575" 
d="M156.5 23q-56.5 31 -87.5 89t-31 135t31 134.5t87.5 88.5t131.5 31t131.5 -31t87 -88.5t30.5 -134.5t-30.5 -135t-87 -89t-131.5 -31t-131.5 31zM380 129q32 40 32 118q0 77 -32 117.5t-92 40.5t-92.5 -40.5t-32.5 -117.5q0 -78 32 -118t92 -40q61 0 93 40zM134 614v81
h308v-81h-308zM328 744h-80l99 204h127z" />
    <glyph glyph-name="uni1E51" unicode="&#x1e51;" horiz-adv-x="575" 
d="M156.5 23q-56.5 31 -87.5 89t-31 135t31 134.5t87.5 88.5t131.5 31t131.5 -31t87 -88.5t30.5 -134.5t-30.5 -135t-87 -89t-131.5 -31t-131.5 31zM380 129q32 40 32 118q0 77 -32 117.5t-92 40.5t-92.5 -40.5t-32.5 -117.5q0 -78 32 -118t92 -40q61 0 93 40zM134 614v81
h308v-81h-308zM248 744l-146 204h127l99 -204h-80z" />
    <glyph glyph-name="uni01EB" unicode="&#x1eb;" horiz-adv-x="575" 
d="M325.5 -22.5q-17.5 -18.5 -17.5 -46.5t16 -42.5t46 -14.5q28 0 55 13l17 -61q-40 -21 -95 -21q-54 0 -88.5 30.5t-34.5 77.5t34 81q-102 10 -161 77.5t-59 175.5q0 77 31 134.5t87.5 88.5t131.5 31t131.5 -31t87 -88.5t30.5 -134.5q0 -91 -42 -155t-115 -85
q-37 -11 -54.5 -29.5zM380 129q32 40 32 118q0 77 -32 117.5t-92 40.5t-92.5 -40.5t-32.5 -117.5q0 -78 32 -118t92 -40q61 0 93 40z" />
    <glyph glyph-name="oslash" unicode="&#xf8;" horiz-adv-x="575" 
d="M514.5 366q22.5 -52 22.5 -119q0 -77 -30.5 -135t-87 -89t-131.5 -31q-50 0 -98 16l-37 -64l-62 37l36 62q-43 34 -66 86t-23 118q0 77 31 134.5t87.5 88.5t131.5 31q55 0 96 -16l38 65l63 -37l-36 -62q43 -33 65.5 -85zM184 142l150 257q-20 7 -46 7q-62 0 -94.5 -40.5
t-32.5 -118.5q0 -67 23 -105zM414 247q0 65 -23 105l-150 -256q20 -7 46 -7q127 0 127 158z" />
    <glyph glyph-name="oslashacute" unicode="&#x1ff;" horiz-adv-x="575" 
d="M514.5 366q22.5 -52 22.5 -119q0 -77 -30.5 -135t-87 -89t-131.5 -31q-50 0 -98 16l-37 -64l-62 37l36 62q-43 34 -66 86t-23 118q0 77 31 134.5t87.5 88.5t131.5 31q55 0 96 -16l38 65l63 -37l-36 -62q43 -33 65.5 -85zM184 142l150 257q-20 7 -46 7q-62 0 -94.5 -40.5
t-32.5 -118.5q0 -67 23 -105zM414 247q0 65 -23 105l-150 -256q20 -7 46 -7q127 0 127 158zM328 553h-80l99 204h127z" />
    <glyph glyph-name="otilde" unicode="&#xf5;" horiz-adv-x="575" 
d="M156.5 23q-56.5 31 -87.5 89t-31 135t31 134.5t87.5 88.5t131.5 31t131.5 -31t87 -88.5t30.5 -134.5t-30.5 -135t-87 -89t-131.5 -31t-131.5 31zM380 129q32 40 32 118q0 77 -32 117.5t-92 40.5t-92.5 -40.5t-32.5 -117.5q0 -78 32 -118t92 -40q61 0 93 40zM147 690.5
q28 34.5 73 34.5q19 0 36 -7.5t43 -22.5q19 -12 32 -18t25 -6q20 0 31 14t13 37h57q0 -66 -28 -100t-73 -34q-19 0 -36 7.5t-43 22.5q-19 12 -32 18t-25 6q-20 0 -31 -14t-13 -37h-57q0 65 28 99.5z" />
    <glyph glyph-name="uni1E4D" unicode="&#x1e4d;" horiz-adv-x="575" 
d="M156.5 23q-56.5 31 -87.5 89t-31 135t31 134.5t87.5 88.5t131.5 31t131.5 -31t87 -88.5t30.5 -134.5t-30.5 -135t-87 -89t-131.5 -31t-131.5 31zM380 129q32 40 32 118q0 77 -32 117.5t-92 40.5t-92.5 -40.5t-32.5 -117.5q0 -78 32 -118t92 -40q61 0 93 40zM147 690.5
q28 34.5 73 34.5q19 0 36 -7.5t43 -22.5q19 -12 32 -18t25 -6q20 0 31 14t13 37h57q0 -66 -28 -100t-73 -34q-19 0 -36 7.5t-43 22.5q-19 12 -32 18t-25 6q-20 0 -31 -14t-13 -37h-57q0 65 28 99.5zM328 744h-80l99 204h127z" />
    <glyph glyph-name="uni1E4F" unicode="&#x1e4f;" horiz-adv-x="575" 
d="M156.5 23q-56.5 31 -87.5 89t-31 135t31 134.5t87.5 88.5t131.5 31t131.5 -31t87 -88.5t30.5 -134.5t-30.5 -135t-87 -89t-131.5 -31t-131.5 31zM380 129q32 40 32 118q0 77 -32 117.5t-92 40.5t-92.5 -40.5t-32.5 -117.5q0 -78 32 -118t92 -40q61 0 93 40zM147 690.5
q28 34.5 73 34.5q19 0 36 -7.5t43 -22.5q19 -12 32 -18t25 -6q20 0 31 14t13 37h57q0 -66 -28 -100t-73 -34q-19 0 -36 7.5t-43 22.5q-19 12 -32 18t-25 6q-20 0 -31 -14t-13 -37h-57q0 65 28 99.5zM136 903h120v-114h-120v114zM320 903h120v-114h-120v114z" />
    <glyph glyph-name="uni022D" unicode="&#x22d;" horiz-adv-x="575" 
d="M156.5 23q-56.5 31 -87.5 89t-31 135t31 134.5t87.5 88.5t131.5 31t131.5 -31t87 -88.5t30.5 -134.5t-30.5 -135t-87 -89t-131.5 -31t-131.5 31zM380 129q32 40 32 118q0 77 -32 117.5t-92 40.5t-92.5 -40.5t-32.5 -117.5q0 -78 32 -118t92 -40q61 0 93 40zM147 690.5
q28 34.5 73 34.5q19 0 36 -7.5t43 -22.5q19 -12 32 -18t25 -6q20 0 31 14t13 37h57q0 -66 -28 -100t-73 -34q-19 0 -36 7.5t-43 22.5q-19 12 -32 18t-25 6q-20 0 -31 -14t-13 -37h-57q0 65 28 99.5zM134 805v81h308v-81h-308z" />
    <glyph glyph-name="oe" unicode="&#x153;" horiz-adv-x="900" 
d="M864 222h-328q6 -69 38.5 -101.5t94.5 -32.5q82 0 151 52l36 -86q-35 -28 -86 -45t-102 -17q-65 0 -115 23.5t-80 68.5q-29 -44 -77.5 -68t-110.5 -24q-74 0 -130 31.5t-86.5 89t-30.5 134.5t30.5 134.5t86.5 88.5t130 31q63 0 111 -24t78 -69q29 45 76 69t106 24
q62 0 109 -30t73 -85.5t26 -128.5v-35zM572.5 381q-30.5 -32 -36.5 -92h221q-3 60 -30 92t-74 32q-50 0 -80.5 -32zM377.5 129q31.5 40 31.5 118q0 77 -32 117.5t-91 40.5t-91 -40.5t-32 -117.5q0 -78 32 -118t91 -40q60 0 91.5 40z" />
    <glyph glyph-name="p" unicode="p" horiz-adv-x="601" 
d="M458.5 469q49.5 -32 77 -90.5t27.5 -134.5t-27.5 -133t-76.5 -88t-113 -31q-52 0 -93 22t-63 61v-255h-125v669h123v-74q22 41 63.5 63.5t94.5 22.5q63 0 112.5 -32zM405 129.5q33 40.5 33 114.5q0 76 -33 118t-92 42q-60 0 -92.5 -41t-32.5 -117q0 -75 32.5 -116
t92.5 -41q59 0 92 40.5z" />
    <glyph glyph-name="thorn" unicode="&#xfe;" horiz-adv-x="601" 
d="M458.5 469q49.5 -32 77 -90t27.5 -135q0 -76 -27.5 -133t-77 -88t-112.5 -31q-52 0 -93 22t-63 61v-255h-125v885h125v-287q22 40 63 61.5t93 21.5q63 0 112.5 -32zM405.5 129.5q32.5 40.5 32.5 114.5q0 75 -33 117.5t-92 42.5q-60 0 -92.5 -41t-32.5 -117
q0 -75 32.5 -116t92.5 -41t92.5 40.5z" />
    <glyph glyph-name="q" unicode="q" horiz-adv-x="601" 
d="M537 489v-669h-125v257q-22 -40 -63.5 -62.5t-93.5 -22.5q-64 0 -113 31t-76.5 88t-27.5 133t27.5 134.5t77 90.5t112.5 32q53 0 94.5 -22.5t63.5 -63.5v74h124zM380.5 130q32.5 41 32.5 116q0 76 -32.5 117t-92.5 41q-59 0 -92 -42t-33 -118q0 -74 33 -114.5t93 -40.5
q59 0 91.5 41z" />
    <glyph glyph-name="r" unicode="r" horiz-adv-x="383" 
d="M387 397l-73 -7q-124 -13 -124 -126v-264h-125v489h119v-86q38 88 157 96l38 3z" />
    <glyph glyph-name="racute" unicode="&#x155;" horiz-adv-x="383" 
d="M387 397l-73 -7q-124 -13 -124 -126v-264h-125v489h119v-86q38 88 157 96l38 3zM266 553h-80l99 204h127z" />
    <glyph glyph-name="rcaron" unicode="&#x159;" horiz-adv-x="383" 
d="M387 397l-73 -7q-124 -13 -124 -126v-264h-125v489h119v-86q38 88 157 96l38 3zM289 757h101l-125 -204h-78l-125 204h101l63 -126z" />
    <glyph glyph-name="rcommaaccent" unicode="&#x157;" horiz-adv-x="383" 
d="M387 397l-73 -7q-124 -13 -124 -126v-264h-125v489h119v-86q38 88 157 96l38 3zM192 -68v-62q0 -44 -12.5 -77t-44.5 -62l-47 33q30 30 35 66h-61v102h130z" />
    <glyph glyph-name="uni0211" unicode="&#x211;" horiz-adv-x="383" 
d="M387 397l-73 -7q-124 -13 -124 -126v-264h-125v489h119v-86q38 88 157 96l38 3zM132 553l-78 204h96l38 -204h-56zM264 553l-78 204h96l38 -204h-56z" />
    <glyph glyph-name="uni1E5B" unicode="&#x1e5b;" horiz-adv-x="383" 
d="M387 397l-73 -7q-124 -13 -124 -126v-264h-125v489h119v-86q38 88 157 96l38 3zM66 -77h122v-116h-122v116z" />
    <glyph glyph-name="uni0213" unicode="&#x213;" horiz-adv-x="383" 
d="M387 397l-73 -7q-124 -13 -124 -126v-264h-125v489h119v-86q38 88 157 96l38 3zM336.5 705.5q48.5 -34.5 67.5 -103.5l-63 -26q-43 83 -115 83t-115 -83l-63 26q19 68 67.5 103t110.5 35t110.5 -34.5z" />
    <glyph glyph-name="uni1E5F" unicode="&#x1e5f;" horiz-adv-x="383" 
d="M387 397l-73 -7q-124 -13 -124 -126v-264h-125v489h119v-86q38 88 157 96l38 3zM-27 -174v77h308v-77h-308z" />
    <glyph glyph-name="s" unicode="s" horiz-adv-x="485" 
d="M125.5 8q-54.5 16 -92.5 46l35 87q78 -57 179 -57q43 0 65.5 14t22.5 40q0 22 -15.5 34t-55.5 22l-80 18q-68 15 -101 49t-33 88q0 45 25.5 79.5t71 53.5t105.5 19q52 0 100.5 -16t85.5 -45l-35 -85q-76 55 -152 55q-41 0 -64 -15t-23 -42q0 -20 14.5 -33t46.5 -20
l83 -19q73 -16 107 -50.5t34 -90.5q0 -68 -55 -108t-149 -40q-65 0 -119.5 16z" />
    <glyph glyph-name="sacute" unicode="&#x15b;" horiz-adv-x="485" 
d="M125.5 8q-54.5 16 -92.5 46l35 87q78 -57 179 -57q43 0 65.5 14t22.5 40q0 22 -15.5 34t-55.5 22l-80 18q-68 15 -101 49t-33 88q0 45 25.5 79.5t71 53.5t105.5 19q52 0 100.5 -16t85.5 -45l-35 -85q-76 55 -152 55q-41 0 -64 -15t-23 -42q0 -20 14.5 -33t46.5 -20
l83 -19q73 -16 107 -50.5t34 -90.5q0 -68 -55 -108t-149 -40q-65 0 -119.5 16zM291 553h-80l99 204h127z" />
    <glyph glyph-name="uni1E65" unicode="&#x1e65;" horiz-adv-x="485" 
d="M125.5 8q-54.5 16 -92.5 46l35 87q78 -57 179 -57q43 0 65.5 14t22.5 40q0 22 -15.5 34t-55.5 22l-80 18q-68 15 -101 49t-33 88q0 45 25.5 79.5t71 53.5t105.5 19q52 0 100.5 -16t85.5 -45l-35 -85q-76 55 -152 55q-41 0 -64 -15t-23 -42q0 -20 14.5 -33t46.5 -20
l83 -19q73 -16 107 -50.5t34 -90.5q0 -68 -55 -108t-149 -40q-65 0 -119.5 16zM304 553h-80l99 204h127zM83 756h138v-123h-138v123z" />
    <glyph glyph-name="scaron" unicode="&#x161;" horiz-adv-x="485" 
d="M125.5 8q-54.5 16 -92.5 46l35 87q78 -57 179 -57q43 0 65.5 14t22.5 40q0 22 -15.5 34t-55.5 22l-80 18q-68 15 -101 49t-33 88q0 45 25.5 79.5t71 53.5t105.5 19q52 0 100.5 -16t85.5 -45l-35 -85q-76 55 -152 55q-41 0 -64 -15t-23 -42q0 -20 14.5 -33t46.5 -20
l83 -19q73 -16 107 -50.5t34 -90.5q0 -68 -55 -108t-149 -40q-65 0 -119.5 16zM314 757h101l-125 -204h-78l-125 204h101l63 -126z" />
    <glyph glyph-name="uni1E67" unicode="&#x1e67;" horiz-adv-x="485" 
d="M125.5 8q-54.5 16 -92.5 46l35 87q78 -57 179 -57q43 0 65.5 14t22.5 40q0 22 -15.5 34t-55.5 22l-80 18q-68 15 -101 49t-33 88q0 45 25.5 79.5t71 53.5t105.5 19q52 0 100.5 -16t85.5 -45l-35 -85q-76 55 -152 55q-41 0 -64 -15t-23 -42q0 -20 14.5 -33t46.5 -20
l83 -19q73 -16 107 -50.5t34 -90.5q0 -68 -55 -108t-149 -40q-65 0 -119.5 16zM314 757h101l-125 -204h-78l-125 204h101l63 -126zM182 907h138v-123h-138v123z" />
    <glyph glyph-name="scedilla" unicode="&#x15f;" horiz-adv-x="485" 
d="M400.5 37q-48.5 -39 -133.5 -44l-4 -34q6 1 17 1q36 0 58 -18t22 -51q0 -38 -33.5 -62t-93.5 -24q-22 0 -47.5 4.5t-44.5 13.5l12 52q43 -14 78 -14q23 0 36 7.5t13 22.5q0 10 -8.5 16t-24.5 6q-14 0 -40 -7l-19 19l8 69q-100 11 -163 60l35 87q78 -57 179 -57
q43 0 65.5 14t22.5 40q0 22 -15.5 34t-55.5 22l-80 18q-68 15 -101 49t-33 88q0 45 25.5 79.5t71 53.5t105.5 19q52 0 100.5 -16t85.5 -45l-35 -85q-76 55 -152 55q-41 0 -64 -15t-23 -42q0 -20 14.5 -33t46.5 -20l83 -19q73 -16 107 -50.5t34 -90.5q0 -64 -48.5 -103z" />
    <glyph glyph-name="scircumflex" unicode="&#x15d;" horiz-adv-x="485" 
d="M125.5 8q-54.5 16 -92.5 46l35 87q78 -57 179 -57q43 0 65.5 14t22.5 40q0 22 -15.5 34t-55.5 22l-80 18q-68 15 -101 49t-33 88q0 45 25.5 79.5t71 53.5t105.5 19q52 0 100.5 -16t85.5 -45l-35 -85q-76 55 -152 55q-41 0 -64 -15t-23 -42q0 -20 14.5 -33t46.5 -20
l83 -19q73 -16 107 -50.5t34 -90.5q0 -68 -55 -108t-149 -40q-65 0 -119.5 16zM188 553h-101l125 204h78l125 -204h-101l-63 126z" />
    <glyph glyph-name="scommaaccent" unicode="&#x219;" horiz-adv-x="485" 
d="M125.5 8q-54.5 16 -92.5 46l35 87q78 -57 179 -57q43 0 65.5 14t22.5 40q0 22 -15.5 34t-55.5 22l-80 18q-68 15 -101 49t-33 88q0 45 25.5 79.5t71 53.5t105.5 19q52 0 100.5 -16t85.5 -45l-35 -85q-76 55 -152 55q-41 0 -64 -15t-23 -42q0 -20 14.5 -33t46.5 -20
l83 -19q73 -16 107 -50.5t34 -90.5q0 -68 -55 -108t-149 -40q-65 0 -119.5 16zM307 -68v-62q0 -44 -12.5 -77t-44.5 -62l-47 33q30 30 35 66h-61v102h130z" />
    <glyph glyph-name="uni1E61" unicode="&#x1e61;" horiz-adv-x="485" 
d="M125.5 8q-54.5 16 -92.5 46l35 87q78 -57 179 -57q43 0 65.5 14t22.5 40q0 22 -15.5 34t-55.5 22l-80 18q-68 15 -101 49t-33 88q0 45 25.5 79.5t71 53.5t105.5 19q52 0 100.5 -16t85.5 -45l-35 -85q-76 55 -152 55q-41 0 -64 -15t-23 -42q0 -20 14.5 -33t46.5 -20
l83 -19q73 -16 107 -50.5t34 -90.5q0 -68 -55 -108t-149 -40q-65 0 -119.5 16zM182 716h138v-123h-138v123z" />
    <glyph glyph-name="uni1E63" unicode="&#x1e63;" horiz-adv-x="485" 
d="M125.5 8q-54.5 16 -92.5 46l35 87q78 -57 179 -57q43 0 65.5 14t22.5 40q0 22 -15.5 34t-55.5 22l-80 18q-68 15 -101 49t-33 88q0 45 25.5 79.5t71 53.5t105.5 19q52 0 100.5 -16t85.5 -45l-35 -85q-76 55 -152 55q-41 0 -64 -15t-23 -42q0 -20 14.5 -33t46.5 -20
l83 -19q73 -16 107 -50.5t34 -90.5q0 -68 -55 -108t-149 -40q-65 0 -119.5 16zM181 -77h122v-116h-122v116z" />
    <glyph glyph-name="uni1E69" unicode="&#x1e69;" horiz-adv-x="485" 
d="M125.5 8q-54.5 16 -92.5 46l35 87q78 -57 179 -57q43 0 65.5 14t22.5 40q0 22 -15.5 34t-55.5 22l-80 18q-68 15 -101 49t-33 88q0 45 25.5 79.5t71 53.5t105.5 19q52 0 100.5 -16t85.5 -45l-35 -85q-76 55 -152 55q-41 0 -64 -15t-23 -42q0 -20 14.5 -33t46.5 -20
l83 -19q73 -16 107 -50.5t34 -90.5q0 -68 -55 -108t-149 -40q-65 0 -119.5 16zM181 -77h122v-116h-122v116zM182 716h138v-123h-138v123z" />
    <glyph glyph-name="germandbls" unicode="&#xdf;" horiz-adv-x="655" 
d="M65 456q0 123 67 189.5t190 66.5q91 0 142 -37.5t51 -104.5q0 -39 -18.5 -67.5t-53.5 -63.5q-25 -24 -37 -40.5t-12 -34.5q0 -24 21.5 -37.5t67.5 -28.5q47 -16 76 -31t50.5 -43.5t21.5 -74.5q0 -71 -53.5 -114t-141.5 -43q-55 0 -106.5 16.5t-89.5 45.5l36 87
q83 -54 157 -54q41 0 62 13.5t21 39.5t-22.5 40t-70.5 30q-46 15 -75 29t-49.5 41.5t-20.5 70.5q0 37 17.5 64t51.5 62q26 27 38.5 45t12.5 39q0 28 -21 43.5t-60 15.5q-61 0 -94 -38t-33 -108v-474h-125v456z" />
    <glyph glyph-name="t" unicode="t" horiz-adv-x="369" 
d="M361 89l-6 -93q-30 -3 -55 -3q-103 0 -152 47.5t-49 141.5v213h-94v94h94v146h125v-146h129v-94h-129v-211q0 -98 91 -98q22 0 46 3z" />
    <glyph glyph-name="tbar" unicode="&#x167;" horiz-adv-x="379" 
d="M366 89l-6 -93q-30 -3 -55 -3q-103 0 -152 47.5t-49 141.5v52h-74v89h74v72h-94v94h94v146h125v-146h129v-94h-129v-72h109v-89h-109v-50q0 -98 91 -98q22 0 46 3z" />
    <glyph glyph-name="tcaron" unicode="&#x165;" horiz-adv-x="369" 
d="M368 705l-30 -172h-69v172h99zM315 86q22 0 46 3l-6 -93q-30 -3 -55 -3q-103 0 -152 47.5t-49 141.5v213h-94v94h94v146h125v-146h129v-94h-129v-211q0 -98 91 -98z" />
    <glyph glyph-name="uni0163" unicode="&#x163;" horiz-adv-x="369" 
d="M260 -5l-5 -36q6 1 17 1q36 0 58 -18t22 -51q0 -38 -33.5 -62t-93.5 -24q-22 0 -47.5 4.5t-44.5 13.5l12 52q43 -14 78 -14q23 0 36 7.5t13 22.5q0 10 -8.5 16t-24.5 6q-14 0 -40 -7l-19 19l10 88q-91 40 -91 169v213h-94v94h94v146h125v-146h129v-94h-129v-211
q0 -98 91 -98q22 0 46 3l-6 -93q-30 -3 -55 -3q-16 0 -40 2z" />
    <glyph glyph-name="uni021B" unicode="&#x21b;" horiz-adv-x="369" 
d="M361 89l-6 -93q-30 -3 -55 -3q-103 0 -152 47.5t-49 141.5v213h-94v94h94v146h125v-146h129v-94h-129v-211q0 -98 91 -98q22 0 46 3zM299 -68v-62q0 -44 -12.5 -77t-44.5 -62l-47 33q30 30 35 66h-61v102h130z" />
    <glyph glyph-name="uni1E97" unicode="&#x1e97;" horiz-adv-x="369" 
d="M361 89l-6 -93q-30 -3 -55 -3q-103 0 -152 47.5t-49 141.5v213h-94v94h94v146h125v-146h129v-94h-129v-211q0 -98 91 -98q22 0 46 3zM10 830h120v-115h-120v115zM194 830h120v-115h-120v115z" />
    <glyph glyph-name="uni1E6D" unicode="&#x1e6d;" horiz-adv-x="369" 
d="M361 89l-6 -93q-30 -3 -55 -3q-103 0 -152 47.5t-49 141.5v213h-94v94h94v146h125v-146h129v-94h-129v-211q0 -98 91 -98q22 0 46 3zM173 -77h122v-116h-122v116z" />
    <glyph glyph-name="uni1E6F" unicode="&#x1e6f;" horiz-adv-x="369" 
d="M361 89l-6 -93q-30 -3 -55 -3q-103 0 -152 47.5t-49 141.5v213h-94v94h94v146h125v-146h129v-94h-129v-211q0 -98 91 -98q22 0 46 3zM80 -174v77h308v-77h-308z" />
    <glyph glyph-name="u" unicode="u" horiz-adv-x="579" 
d="M514 489v-489h-122v75q-23 -40 -62 -61.5t-88 -21.5q-180 0 -180 202v295h125v-296q0 -52 21 -77t66 -25q52 0 83.5 34.5t31.5 91.5v272h125z" />
    <glyph glyph-name="uacute" unicode="&#xfa;" horiz-adv-x="579" 
d="M514 489v-489h-122v75q-23 -40 -62 -61.5t-88 -21.5q-180 0 -180 202v295h125v-296q0 -52 21 -77t66 -25q52 0 83.5 34.5t31.5 91.5v272h125zM329 553h-80l99 204h127z" />
    <glyph glyph-name="ubreve" unicode="&#x16d;" horiz-adv-x="579" 
d="M514 489v-489h-122v75q-23 -40 -62 -61.5t-88 -21.5q-180 0 -180 202v295h125v-296q0 -52 21 -77t66 -25q52 0 83.5 34.5t31.5 91.5v272h125zM178.5 613.5q-48.5 34.5 -67.5 103.5l63 26q43 -83 115 -83t115 83l63 -26q-19 -68 -67.5 -103t-110.5 -35t-110.5 34.5z" />
    <glyph glyph-name="ucircumflex" unicode="&#xfb;" horiz-adv-x="579" 
d="M514 489v-489h-122v75q-23 -40 -62 -61.5t-88 -21.5q-180 0 -180 202v295h125v-296q0 -52 21 -77t66 -25q52 0 83.5 34.5t31.5 91.5v272h125zM226 553h-101l125 204h78l125 -204h-101l-63 126z" />
    <glyph glyph-name="uni0215" unicode="&#x215;" horiz-adv-x="579" 
d="M514 489v-489h-122v75q-23 -40 -62 -61.5t-88 -21.5q-180 0 -180 202v295h125v-296q0 -52 21 -77t66 -25q52 0 83.5 34.5t31.5 91.5v272h125zM195 553l-78 204h96l38 -204h-56zM327 553l-78 204h96l38 -204h-56z" />
    <glyph glyph-name="udieresis" unicode="&#xfc;" horiz-adv-x="579" 
d="M514 489v-489h-122v75q-23 -40 -62 -61.5t-88 -21.5q-180 0 -180 202v295h125v-296q0 -52 21 -77t66 -25q52 0 83.5 34.5t31.5 91.5v272h125zM137 712h120v-114h-120v114zM321 712h120v-114h-120v114z" />
    <glyph glyph-name="uni1EE5" unicode="&#x1ee5;" horiz-adv-x="579" 
d="M514 489v-489h-122v75q-23 -40 -62 -61.5t-88 -21.5q-180 0 -180 202v295h125v-296q0 -52 21 -77t66 -25q52 0 83.5 34.5t31.5 91.5v272h125zM228 -77h122v-116h-122v116z" />
    <glyph glyph-name="ugrave" unicode="&#xf9;" horiz-adv-x="579" 
d="M514 489v-489h-122v75q-23 -40 -62 -61.5t-88 -21.5q-180 0 -180 202v295h125v-296q0 -52 21 -77t66 -25q52 0 83.5 34.5t31.5 91.5v272h125zM249 553l-146 204h127l99 -204h-80z" />
    <glyph glyph-name="uni1EE7" unicode="&#x1ee7;" horiz-adv-x="579" 
d="M514 489v-489h-122v75q-23 -40 -62 -61.5t-88 -21.5q-180 0 -180 202v295h125v-296q0 -52 21 -77t66 -25q52 0 83.5 34.5t31.5 91.5v272h125zM324 553h-67v27q0 21 10 35t28 29q13 12 18 18t5 14q0 24 -37 24q-26 0 -53 -10l-18 52q42 18 83 18q52 0 81 -20.5t29 -51.5
q0 -23 -11 -37.5t-34 -31.5q-17 -12 -25.5 -22t-8.5 -24v-20z" />
    <glyph glyph-name="uhorn" unicode="&#x1b0;" horiz-adv-x="599" 
d="M628 616v-34q0 -59 -30.5 -99t-83.5 -51v-432h-122v75q-23 -40 -62 -61.5t-88 -21.5q-180 0 -180 202v295h125v-296q0 -52 21 -77t66 -25q52 0 83.5 34.5t31.5 91.5v272h35q51 0 73.5 25.5t22.5 83.5v18h108z" />
    <glyph glyph-name="uni1EE9" unicode="&#x1ee9;" horiz-adv-x="599" 
d="M628 616v-34q0 -59 -30.5 -99t-83.5 -51v-432h-122v75q-23 -40 -62 -61.5t-88 -21.5q-180 0 -180 202v295h125v-296q0 -52 21 -77t66 -25q52 0 83.5 34.5t31.5 91.5v272h35q51 0 73.5 25.5t22.5 83.5v18h108zM329 553h-80l99 204h127z" />
    <glyph glyph-name="uni1EF1" unicode="&#x1ef1;" horiz-adv-x="599" 
d="M628 616v-34q0 -59 -30.5 -99t-83.5 -51v-432h-122v75q-23 -40 -62 -61.5t-88 -21.5q-180 0 -180 202v295h125v-296q0 -52 21 -77t66 -25q52 0 83.5 34.5t31.5 91.5v272h35q51 0 73.5 25.5t22.5 83.5v18h108zM228 -77h122v-116h-122v116z" />
    <glyph glyph-name="uni1EEB" unicode="&#x1eeb;" horiz-adv-x="599" 
d="M628 616v-34q0 -59 -30.5 -99t-83.5 -51v-432h-122v75q-23 -40 -62 -61.5t-88 -21.5q-180 0 -180 202v295h125v-296q0 -52 21 -77t66 -25q52 0 83.5 34.5t31.5 91.5v272h35q51 0 73.5 25.5t22.5 83.5v18h108zM249 553l-146 204h127l99 -204h-80z" />
    <glyph glyph-name="uni1EED" unicode="&#x1eed;" horiz-adv-x="599" 
d="M628 616v-34q0 -59 -30.5 -99t-83.5 -51v-432h-122v75q-23 -40 -62 -61.5t-88 -21.5q-180 0 -180 202v295h125v-296q0 -52 21 -77t66 -25q52 0 83.5 34.5t31.5 91.5v272h35q51 0 73.5 25.5t22.5 83.5v18h108zM324 553h-67v27q0 21 10 35t28 29q13 12 18 18t5 14
q0 24 -37 24q-26 0 -53 -10l-18 52q42 18 83 18q52 0 81 -20.5t29 -51.5q0 -23 -11 -37.5t-34 -31.5q-17 -12 -25.5 -22t-8.5 -24v-20z" />
    <glyph glyph-name="uni1EEF" unicode="&#x1eef;" horiz-adv-x="599" 
d="M628 616v-34q0 -59 -30.5 -99t-83.5 -51v-432h-122v75q-23 -40 -62 -61.5t-88 -21.5q-180 0 -180 202v295h125v-296q0 -52 21 -77t66 -25q52 0 83.5 34.5t31.5 91.5v272h35q51 0 73.5 25.5t22.5 83.5v18h108zM148 690.5q28 34.5 73 34.5q19 0 36 -7.5t43 -22.5
q19 -12 32 -18t25 -6q20 0 31 14t13 37h57q0 -66 -28 -100t-73 -34q-19 0 -36 7.5t-43 22.5q-19 12 -32 18t-25 6q-20 0 -31 -14t-13 -37h-57q0 65 28 99.5z" />
    <glyph glyph-name="uhungarumlaut" unicode="&#x171;" horiz-adv-x="579" 
d="M514 489v-489h-122v75q-23 -40 -62 -61.5t-88 -21.5q-180 0 -180 202v295h125v-296q0 -52 21 -77t66 -25q52 0 83.5 34.5t31.5 91.5v272h125zM251 553h-56l38 204h96zM383 553h-56l38 204h96z" />
    <glyph glyph-name="uni0217" unicode="&#x217;" horiz-adv-x="579" 
d="M514 489v-489h-122v75q-23 -40 -62 -61.5t-88 -21.5q-180 0 -180 202v295h125v-296q0 -52 21 -77t66 -25q52 0 83.5 34.5t31.5 91.5v272h125zM399.5 705.5q48.5 -34.5 67.5 -103.5l-63 -26q-43 83 -115 83t-115 -83l-63 26q19 68 67.5 103t110.5 35t110.5 -34.5z" />
    <glyph glyph-name="umacron" unicode="&#x16b;" horiz-adv-x="579" 
d="M514 489v-489h-122v75q-23 -40 -62 -61.5t-88 -21.5q-180 0 -180 202v295h125v-296q0 -52 21 -77t66 -25q52 0 83.5 34.5t31.5 91.5v272h125zM135 614v81h308v-81h-308z" />
    <glyph glyph-name="uni1E7B" unicode="&#x1e7b;" horiz-adv-x="579" 
d="M514 489v-489h-122v75q-23 -40 -62 -61.5t-88 -21.5q-180 0 -180 202v295h125v-296q0 -52 21 -77t66 -25q52 0 83.5 34.5t31.5 91.5v272h125zM135 614v81h308v-81h-308zM137 903h120v-114h-120v114zM321 903h120v-114h-120v114z" />
    <glyph glyph-name="uogonek" unicode="&#x173;" horiz-adv-x="579" 
d="M554 -174q-40 -21 -95 -21q-54 0 -88.5 30.5t-34.5 78.5q0 31 14.5 57t41.5 44v60q-23 -40 -62 -61.5t-88 -21.5q-180 0 -180 202v295h125v-296q0 -52 21 -77t66 -25q52 0 83.5 34.5t31.5 91.5v272h125v-489h-8q-38 0 -62 -19t-24 -50q0 -28 16.5 -42.5t45.5 -14.5
q28 0 55 13z" />
    <glyph glyph-name="uring" unicode="&#x16f;" horiz-adv-x="579" 
d="M514 489v-489h-122v75q-23 -40 -62 -61.5t-88 -21.5q-180 0 -180 202v295h125v-296q0 -52 21 -77t66 -25q52 0 83.5 34.5t31.5 91.5v272h125zM214 581.5q-31 30.5 -31 74.5q0 43 31 73.5t75 30.5t75 -30.5t31 -73.5q0 -44 -31 -74.5t-75 -30.5t-75 30.5zM321 622
q13 14 13 34t-13 33.5t-32 13.5t-32 -13.5t-13 -33.5t13 -34t32 -14t32 14z" />
    <glyph glyph-name="utilde" unicode="&#x169;" horiz-adv-x="579" 
d="M514 489v-489h-122v75q-23 -40 -62 -61.5t-88 -21.5q-180 0 -180 202v295h125v-296q0 -52 21 -77t66 -25q52 0 83.5 34.5t31.5 91.5v272h125zM148 690.5q28 34.5 73 34.5q19 0 36 -7.5t43 -22.5q19 -12 32 -18t25 -6q20 0 31 14t13 37h57q0 -66 -28 -100t-73 -34
q-19 0 -36 7.5t-43 22.5q-19 12 -32 18t-25 6q-20 0 -31 -14t-13 -37h-57q0 65 28 99.5z" />
    <glyph glyph-name="uni1E79" unicode="&#x1e79;" horiz-adv-x="579" 
d="M514 489v-489h-122v75q-23 -40 -62 -61.5t-88 -21.5q-180 0 -180 202v295h125v-296q0 -52 21 -77t66 -25q52 0 83.5 34.5t31.5 91.5v272h125zM148 690.5q28 34.5 73 34.5q19 0 36 -7.5t43 -22.5q19 -12 32 -18t25 -6q20 0 31 14t13 37h57q0 -66 -28 -100t-73 -34
q-19 0 -36 7.5t-43 22.5q-19 12 -32 18t-25 6q-20 0 -31 -14t-13 -37h-57q0 65 28 99.5zM329 744h-80l99 204h127z" />
    <glyph glyph-name="v" unicode="v" horiz-adv-x="526" 
d="M408 488h123l-214 -488h-109l-212 488h132l138 -345z" />
    <glyph glyph-name="w" unicode="w" horiz-adv-x="856" 
d="M725 489h122l-192 -489h-109l-120 315l-117 -315h-108l-193 489h128l125 -340l125 340h90l125 -342z" />
    <glyph glyph-name="wacute" unicode="&#x1e83;" horiz-adv-x="856" 
d="M725 489h122l-192 -489h-109l-120 315l-117 -315h-108l-193 489h128l125 -340l125 340h90l125 -342zM468 553h-80l99 204h127z" />
    <glyph glyph-name="wcircumflex" unicode="&#x175;" horiz-adv-x="856" 
d="M725 489h122l-192 -489h-109l-120 315l-117 -315h-108l-193 489h128l125 -340l125 340h90l125 -342zM365 553h-101l125 204h78l125 -204h-101l-63 126z" />
    <glyph glyph-name="wdieresis" unicode="&#x1e85;" horiz-adv-x="856" 
d="M725 489h122l-192 -489h-109l-120 315l-117 -315h-108l-193 489h128l125 -340l125 340h90l125 -342zM276 712h120v-114h-120v114zM460 712h120v-114h-120v114z" />
    <glyph glyph-name="wgrave" unicode="&#x1e81;" horiz-adv-x="856" 
d="M725 489h122l-192 -489h-109l-120 315l-117 -315h-108l-193 489h128l125 -340l125 340h90l125 -342zM388 553l-146 204h127l99 -204h-80z" />
    <glyph glyph-name="x" unicode="x" horiz-adv-x="532" 
d="M338 252l206 -252h-148l-130 163l-129 -163h-148l205 252l-194 237h149l117 -149l117 149h149z" />
    <glyph glyph-name="y" unicode="y" horiz-adv-x="526" 
d="M408 488h123l-294 -668h-126l89 199l-204 469h132l138 -345z" />
    <glyph glyph-name="yacute" unicode="&#xfd;" horiz-adv-x="526" 
d="M408 488h123l-294 -668h-126l89 199l-204 469h132l138 -345zM304 553h-80l99 204h127z" />
    <glyph glyph-name="ycircumflex" unicode="&#x177;" horiz-adv-x="526" 
d="M408 488h123l-294 -668h-126l89 199l-204 469h132l138 -345zM201 553h-101l125 204h78l125 -204h-101l-63 126z" />
    <glyph glyph-name="ydieresis" unicode="&#xff;" horiz-adv-x="526" 
d="M408 488h123l-294 -668h-126l89 199l-204 469h132l138 -345zM112 712h120v-114h-120v114zM296 712h120v-114h-120v114z" />
    <glyph glyph-name="uni1E8F" unicode="&#x1e8f;" horiz-adv-x="526" 
d="M408 488h123l-294 -668h-126l89 199l-204 469h132l138 -345zM195 716h138v-123h-138v123z" />
    <glyph glyph-name="uni1EF5" unicode="&#x1ef5;" horiz-adv-x="526" 
d="M408 488h123l-294 -668h-126l89 199l-204 469h132l138 -345zM349 -77h122v-116h-122v116z" />
    <glyph glyph-name="ygrave" unicode="&#x1ef3;" horiz-adv-x="526" 
d="M408 488h123l-294 -668h-126l89 199l-204 469h132l138 -345zM224 553l-146 204h127l99 -204h-80z" />
    <glyph glyph-name="uni1EF7" unicode="&#x1ef7;" horiz-adv-x="526" 
d="M408 488h123l-294 -668h-126l89 199l-204 469h132l138 -345zM299 553h-67v27q0 21 10 35t28 29q13 12 18 18t5 14q0 24 -37 24q-26 0 -53 -10l-18 52q42 18 83 18q52 0 81 -20.5t29 -51.5q0 -23 -11 -37.5t-34 -31.5q-17 -12 -25.5 -22t-8.5 -24v-20z" />
    <glyph glyph-name="uni0233" unicode="&#x233;" horiz-adv-x="526" 
d="M408 488h123l-294 -668h-126l89 199l-204 469h132l138 -345zM110 614v81h308v-81h-308z" />
    <glyph glyph-name="uni1EF9" unicode="&#x1ef9;" horiz-adv-x="526" 
d="M408 488h123l-294 -668h-126l89 199l-204 469h132l138 -345zM123 690.5q28 34.5 73 34.5q19 0 36 -7.5t43 -22.5q19 -12 32 -18t25 -6q20 0 31 14t13 37h57q0 -66 -28 -100t-73 -34q-19 0 -36 7.5t-43 22.5q-19 12 -32 18t-25 6q-20 0 -31 -14t-13 -37h-57q0 65 28 99.5z
" />
    <glyph glyph-name="z" unicode="z" horiz-adv-x="510" 
d="M195 94h278v-94h-426v87l266 308h-261v94h411v-85z" />
    <glyph glyph-name="zacute" unicode="&#x17a;" horiz-adv-x="510" 
d="M195 94h278v-94h-426v87l266 308h-261v94h411v-85zM302 553h-80l99 204h127z" />
    <glyph glyph-name="zcaron" unicode="&#x17e;" horiz-adv-x="510" 
d="M195 94h278v-94h-426v87l266 308h-261v94h411v-85zM325 757h101l-125 -204h-78l-125 204h101l63 -126z" />
    <glyph glyph-name="zdotaccent" unicode="&#x17c;" horiz-adv-x="510" 
d="M195 94h278v-94h-426v87l266 308h-261v94h411v-85zM193 716h138v-123h-138v123z" />
    <glyph glyph-name="uni1E93" unicode="&#x1e93;" horiz-adv-x="510" 
d="M195 94h278v-94h-426v87l266 308h-261v94h411v-85zM192 -77h122v-116h-122v116z" />
    <glyph glyph-name="iacute_j.loclNLD" horiz-adv-x="508" 
d="M65 0v489h125v-489h-125zM167 553h-80l99 204h127zM444 22q0 -103 -48 -150t-160 -54l-47 -3l-9 91l49 4q46 3 68 24.5t22 65.5v489h125v-467zM420 553h-80l99 204h127z" />
    <glyph glyph-name="a.ss01" horiz-adv-x="601" 
d="M537 489v-489h-124v79q-22 -41 -63.5 -64t-94.5 -23q-64 0 -113 31t-76.5 88t-27.5 133t27.5 134.5t77 90.5t112.5 32q53 0 94.5 -22.5t63.5 -63.5v74h124zM380.5 130q32.5 41 32.5 116q0 76 -32.5 117t-92.5 41q-59 0 -92 -42t-33 -118q0 -74 33 -114.5t93 -40.5
q59 0 91.5 41z" />
    <glyph glyph-name="aacute.ss01" horiz-adv-x="601" 
d="M537 489v-489h-124v79q-22 -41 -63.5 -64t-94.5 -23q-64 0 -113 31t-76.5 88t-27.5 133t27.5 134.5t77 90.5t112.5 32q53 0 94.5 -22.5t63.5 -63.5v74h124zM380.5 130q32.5 41 32.5 116q0 76 -32.5 117t-92.5 41q-59 0 -92 -42t-33 -118q0 -74 33 -114.5t93 -40.5
q59 0 91.5 41zM341 553h-80l99 204h127z" />
    <glyph glyph-name="abreve.ss01" horiz-adv-x="601" 
d="M537 489v-489h-124v79q-22 -41 -63.5 -64t-94.5 -23q-64 0 -113 31t-76.5 88t-27.5 133t27.5 134.5t77 90.5t112.5 32q53 0 94.5 -22.5t63.5 -63.5v74h124zM380.5 130q32.5 41 32.5 116q0 76 -32.5 117t-92.5 41q-59 0 -92 -42t-33 -118q0 -74 33 -114.5t93 -40.5
q59 0 91.5 41zM190.5 613.5q-48.5 34.5 -67.5 103.5l63 26q43 -83 115 -83t115 83l63 -26q-19 -68 -67.5 -103t-110.5 -35t-110.5 34.5z" />
    <glyph glyph-name="uni1EAF.ss01" horiz-adv-x="601" 
d="M537 489v-489h-124v79q-22 -41 -63.5 -64t-94.5 -23q-64 0 -113 31t-76.5 88t-27.5 133t27.5 134.5t77 90.5t112.5 32q53 0 94.5 -22.5t63.5 -63.5v74h124zM380.5 130q32.5 41 32.5 116q0 76 -32.5 117t-92.5 41q-59 0 -92 -42t-33 -118q0 -74 33 -114.5t93 -40.5
q59 0 91.5 41zM338 659h-74l99 141h114zM194.5 575q-45.5 27 -65.5 81l51 22q19 -31 51 -46t70 -15t70 15t51 46l51 -22q-20 -54 -65.5 -81t-106.5 -27t-106.5 27z" />
    <glyph glyph-name="uni1EB7.ss01" horiz-adv-x="601" 
d="M537 489v-489h-124v79q-22 -41 -63.5 -64t-94.5 -23q-64 0 -113 31t-76.5 88t-27.5 133t27.5 134.5t77 90.5t112.5 32q53 0 94.5 -22.5t63.5 -63.5v74h124zM380.5 130q32.5 41 32.5 116q0 76 -32.5 117t-92.5 41q-59 0 -92 -42t-33 -118q0 -74 33 -114.5t93 -40.5
q59 0 91.5 41zM240 -77h122v-116h-122v116zM190.5 613.5q-48.5 34.5 -67.5 103.5l63 26q43 -83 115 -83t115 83l63 -26q-19 -68 -67.5 -103t-110.5 -35t-110.5 34.5z" />
    <glyph glyph-name="uni1EB1.ss01" horiz-adv-x="601" 
d="M537 489v-489h-124v79q-22 -41 -63.5 -64t-94.5 -23q-64 0 -113 31t-76.5 88t-27.5 133t27.5 134.5t77 90.5t112.5 32q53 0 94.5 -22.5t63.5 -63.5v74h124zM380.5 130q32.5 41 32.5 116q0 76 -32.5 117t-92.5 41q-59 0 -92 -42t-33 -118q0 -74 33 -114.5t93 -40.5
q59 0 91.5 41zM264 659l-139 141h114l99 -141h-74zM194.5 575q-45.5 27 -65.5 81l51 22q19 -31 51 -46t70 -15t70 15t51 46l51 -22q-20 -54 -65.5 -81t-106.5 -27t-106.5 27z" />
    <glyph glyph-name="uni1EB3.ss01" horiz-adv-x="601" 
d="M537 489v-489h-124v79q-22 -41 -63.5 -64t-94.5 -23q-64 0 -113 31t-76.5 88t-27.5 133t27.5 134.5t77 90.5t112.5 32q53 0 94.5 -22.5t63.5 -63.5v74h124zM380.5 130q32.5 41 32.5 116q0 76 -32.5 117t-92.5 41q-59 0 -92 -42t-33 -118q0 -74 33 -114.5t93 -40.5
q59 0 91.5 41zM334 659h-66v19q0 18 12 27t33 18q21 7 21 14q0 6 -9 10.5t-27 4.5q-26 0 -58 -11l-18 47q45 18 90 18q47 0 75 -17.5t28 -44.5q0 -19 -12 -28.5t-35 -18.5q-17 -7 -25.5 -13t-8.5 -16v-9zM194.5 575q-45.5 27 -65.5 81l51 22q19 -31 51 -46t70 -15t70 15
t51 46l51 -22q-20 -54 -65.5 -81t-106.5 -27t-106.5 27z" />
    <glyph glyph-name="uni1EB5.ss01" horiz-adv-x="601" 
d="M537 489v-489h-124v79q-22 -41 -63.5 -64t-94.5 -23q-64 0 -113 31t-76.5 88t-27.5 133t27.5 134.5t77 90.5t112.5 32q53 0 94.5 -22.5t63.5 -63.5v74h124zM380.5 130q32.5 41 32.5 116q0 76 -32.5 117t-92.5 41q-59 0 -92 -42t-33 -118q0 -74 33 -114.5t93 -40.5
q59 0 91.5 41zM161 776.5q29 29.5 72 29.5q19 0 35 -5t44 -17q38 -18 57 -18q20 0 31 9.5t13 27.5h57q0 -45 -29 -74.5t-72 -29.5q-19 0 -35 5t-44 17q-38 18 -57 18q-20 0 -31 -9.5t-13 -27.5h-57q0 45 29 74.5zM194.5 575q-45.5 27 -65.5 81l51 22q19 -31 51 -46t70 -15
t70 15t51 46l51 -22q-20 -54 -65.5 -81t-106.5 -27t-106.5 27z" />
    <glyph glyph-name="uni01CE.ss01" horiz-adv-x="601" 
d="M537 489v-489h-124v79q-22 -41 -63.5 -64t-94.5 -23q-64 0 -113 31t-76.5 88t-27.5 133t27.5 134.5t77 90.5t112.5 32q53 0 94.5 -22.5t63.5 -63.5v74h124zM380.5 130q32.5 41 32.5 116q0 76 -32.5 117t-92.5 41q-59 0 -92 -42t-33 -118q0 -74 33 -114.5t93 -40.5
q59 0 91.5 41zM364 757h101l-125 -204h-78l-125 204h101l63 -126z" />
    <glyph glyph-name="acircumflex.ss01" horiz-adv-x="601" 
d="M537 489v-489h-124v79q-22 -41 -63.5 -64t-94.5 -23q-64 0 -113 31t-76.5 88t-27.5 133t27.5 134.5t77 90.5t112.5 32q53 0 94.5 -22.5t63.5 -63.5v74h124zM380.5 130q32.5 41 32.5 116q0 76 -32.5 117t-92.5 41q-59 0 -92 -42t-33 -118q0 -74 33 -114.5t93 -40.5
q59 0 91.5 41zM238 553h-101l125 204h78l125 -204h-101l-63 126z" />
    <glyph glyph-name="uni1EA5.ss01" horiz-adv-x="601" 
d="M537 489v-489h-124v79q-22 -41 -63.5 -64t-94.5 -23q-64 0 -113 31t-76.5 88t-27.5 133t27.5 134.5t77 90.5t112.5 32q53 0 94.5 -22.5t63.5 -63.5v74h124zM380.5 130q32.5 41 32.5 116q0 76 -32.5 117t-92.5 41q-59 0 -92 -42t-33 -118q0 -74 33 -114.5t93 -40.5
q59 0 91.5 41zM456 659h-64l79 141h110zM234 553h-97l127 142h74l127 -142h-97l-67 82z" />
    <glyph glyph-name="uni1EAD.ss01" horiz-adv-x="601" 
d="M537 489v-489h-124v79q-22 -41 -63.5 -64t-94.5 -23q-64 0 -113 31t-76.5 88t-27.5 133t27.5 134.5t77 90.5t112.5 32q53 0 94.5 -22.5t63.5 -63.5v74h124zM380.5 130q32.5 41 32.5 116q0 76 -32.5 117t-92.5 41q-59 0 -92 -42t-33 -118q0 -74 33 -114.5t93 -40.5
q59 0 91.5 41zM240 -77h122v-116h-122v116zM238 553h-101l125 204h78l125 -204h-101l-63 126z" />
    <glyph glyph-name="uni1EA7.ss01" horiz-adv-x="601" 
d="M537 489v-489h-124v79q-22 -41 -63.5 -64t-94.5 -23q-64 0 -113 31t-76.5 88t-27.5 133t27.5 134.5t77 90.5t112.5 32q53 0 94.5 -22.5t63.5 -63.5v74h124zM380.5 130q32.5 41 32.5 116q0 76 -32.5 117t-92.5 41q-59 0 -92 -42t-33 -118q0 -74 33 -114.5t93 -40.5
q59 0 91.5 41zM434 659l-118 141h110l72 -141h-64zM234 553h-97l127 142h74l127 -142h-97l-67 82z" />
    <glyph glyph-name="uni1EA9.ss01" horiz-adv-x="601" 
d="M537 489v-489h-124v79q-22 -41 -63.5 -64t-94.5 -23q-64 0 -113 31t-76.5 88t-27.5 133t27.5 134.5t77 90.5t112.5 32q53 0 94.5 -22.5t63.5 -63.5v74h124zM380.5 130q32.5 41 32.5 116q0 76 -32.5 117t-92.5 41q-59 0 -92 -42t-33 -118q0 -74 33 -114.5t93 -40.5
q59 0 91.5 41zM457 659h-66v19q0 18 12 27t33 18q21 7 21 14q0 6 -9 10.5t-27 4.5q-26 0 -59 -11l-17 47q45 18 90 18q47 0 75 -17.5t28 -44.5q0 -19 -12 -28.5t-35 -18.5q-17 -7 -25.5 -13t-8.5 -16v-9zM234 553h-97l127 142h74l127 -142h-97l-67 82z" />
    <glyph glyph-name="uni1EAB.ss01" horiz-adv-x="601" 
d="M537 489v-489h-124v79q-22 -41 -63.5 -64t-94.5 -23q-64 0 -113 31t-76.5 88t-27.5 133t27.5 134.5t77 90.5t112.5 32q53 0 94.5 -22.5t63.5 -63.5v74h124zM380.5 130q32.5 41 32.5 116q0 76 -32.5 117t-92.5 41q-59 0 -92 -42t-33 -118q0 -74 33 -114.5t93 -40.5
q59 0 91.5 41zM161 785q29 29 72 29q19 0 35 -4.5t44 -15.5q15 -6 30.5 -11t26.5 -5q20 0 31 9.5t13 25.5h57q0 -44 -29 -73t-72 -29q-19 0 -35 4.5t-44 15.5q-15 6 -30.5 11t-26.5 5q-20 0 -31 -9.5t-13 -25.5h-57q0 44 29 73zM234 553h-97l127 142h74l127 -142h-97l-67 82
z" />
    <glyph glyph-name="uni0201.ss01" horiz-adv-x="601" 
d="M537 489v-489h-124v79q-22 -41 -63.5 -64t-94.5 -23q-64 0 -113 31t-76.5 88t-27.5 133t27.5 134.5t77 90.5t112.5 32q53 0 94.5 -22.5t63.5 -63.5v74h124zM380.5 130q32.5 41 32.5 116q0 76 -32.5 117t-92.5 41q-59 0 -92 -42t-33 -118q0 -74 33 -114.5t93 -40.5
q59 0 91.5 41zM207 553l-78 204h96l38 -204h-56zM339 553l-78 204h96l38 -204h-56z" />
    <glyph glyph-name="adieresis.ss01" horiz-adv-x="601" 
d="M537 489v-489h-124v79q-22 -41 -63.5 -64t-94.5 -23q-64 0 -113 31t-76.5 88t-27.5 133t27.5 134.5t77 90.5t112.5 32q53 0 94.5 -22.5t63.5 -63.5v74h124zM380.5 130q32.5 41 32.5 116q0 76 -32.5 117t-92.5 41q-59 0 -92 -42t-33 -118q0 -74 33 -114.5t93 -40.5
q59 0 91.5 41zM149 712h120v-114h-120v114zM333 712h120v-114h-120v114z" />
    <glyph glyph-name="uni0227.ss01" horiz-adv-x="601" 
d="M537 489v-489h-124v79q-22 -41 -63.5 -64t-94.5 -23q-64 0 -113 31t-76.5 88t-27.5 133t27.5 134.5t77 90.5t112.5 32q53 0 94.5 -22.5t63.5 -63.5v74h124zM380.5 130q32.5 41 32.5 116q0 76 -32.5 117t-92.5 41q-59 0 -92 -42t-33 -118q0 -74 33 -114.5t93 -40.5
q59 0 91.5 41zM232 716h138v-123h-138v123z" />
    <glyph glyph-name="uni1EA1.ss01" horiz-adv-x="601" 
d="M537 489v-489h-124v79q-22 -41 -63.5 -64t-94.5 -23q-64 0 -113 31t-76.5 88t-27.5 133t27.5 134.5t77 90.5t112.5 32q53 0 94.5 -22.5t63.5 -63.5v74h124zM380.5 130q32.5 41 32.5 116q0 76 -32.5 117t-92.5 41q-59 0 -92 -42t-33 -118q0 -74 33 -114.5t93 -40.5
q59 0 91.5 41zM240 -77h122v-116h-122v116z" />
    <glyph glyph-name="agrave.ss01" horiz-adv-x="601" 
d="M537 489v-489h-124v79q-22 -41 -63.5 -64t-94.5 -23q-64 0 -113 31t-76.5 88t-27.5 133t27.5 134.5t77 90.5t112.5 32q53 0 94.5 -22.5t63.5 -63.5v74h124zM380.5 130q32.5 41 32.5 116q0 76 -32.5 117t-92.5 41q-59 0 -92 -42t-33 -118q0 -74 33 -114.5t93 -40.5
q59 0 91.5 41zM261 553l-146 204h127l99 -204h-80z" />
    <glyph glyph-name="uni1EA3.ss01" horiz-adv-x="601" 
d="M537 489v-489h-124v79q-22 -41 -63.5 -64t-94.5 -23q-64 0 -113 31t-76.5 88t-27.5 133t27.5 134.5t77 90.5t112.5 32q53 0 94.5 -22.5t63.5 -63.5v74h124zM380.5 130q32.5 41 32.5 116q0 76 -32.5 117t-92.5 41q-59 0 -92 -42t-33 -118q0 -74 33 -114.5t93 -40.5
q59 0 91.5 41zM336 553h-67v27q0 21 10 35t28 29q13 12 18 18t5 14q0 24 -37 24q-26 0 -53 -10l-18 52q42 18 83 18q52 0 81 -20.5t29 -51.5q0 -23 -11 -37.5t-34 -31.5q-17 -12 -25.5 -22t-8.5 -24v-20z" />
    <glyph glyph-name="uni0203.ss01" horiz-adv-x="601" 
d="M537 489v-489h-124v79q-22 -41 -63.5 -64t-94.5 -23q-64 0 -113 31t-76.5 88t-27.5 133t27.5 134.5t77 90.5t112.5 32q53 0 94.5 -22.5t63.5 -63.5v74h124zM380.5 130q32.5 41 32.5 116q0 76 -32.5 117t-92.5 41q-59 0 -92 -42t-33 -118q0 -74 33 -114.5t93 -40.5
q59 0 91.5 41zM411.5 705.5q48.5 -34.5 67.5 -103.5l-63 -26q-43 83 -115 83t-115 -83l-63 26q19 68 67.5 103t110.5 35t110.5 -34.5z" />
    <glyph glyph-name="amacron.ss01" horiz-adv-x="601" 
d="M537 489v-489h-124v79q-22 -41 -63.5 -64t-94.5 -23q-64 0 -113 31t-76.5 88t-27.5 133t27.5 134.5t77 90.5t112.5 32q53 0 94.5 -22.5t63.5 -63.5v74h124zM380.5 130q32.5 41 32.5 116q0 76 -32.5 117t-92.5 41q-59 0 -92 -42t-33 -118q0 -74 33 -114.5t93 -40.5
q59 0 91.5 41zM147 614v81h308v-81h-308z" />
    <glyph glyph-name="aogonek.ss01" horiz-adv-x="601" 
d="M577 -174q-40 -21 -95 -21q-54 0 -88.5 30.5t-34.5 78.5q0 62 54 99v66q-22 -41 -63.5 -64t-94.5 -23q-64 0 -113.5 31.5t-76.5 88.5t-27 132q0 76 27.5 134t77 90.5t112.5 32.5q53 0 94.5 -23t63.5 -64v75h124v-489h-8q-38 0 -62 -19t-24 -50q0 -28 16 -42.5t46 -14.5
q26 0 55 13zM380.5 130q32.5 41 32.5 116q0 76 -32.5 117t-92.5 41q-59 0 -92 -42t-33 -118q0 -74 33 -114.5t93 -40.5q59 0 91.5 41z" />
    <glyph glyph-name="aring.ss01" horiz-adv-x="601" 
d="M537 489v-489h-124v79q-22 -41 -63.5 -64t-94.5 -23q-64 0 -113 31t-76.5 88t-27.5 133t27.5 134.5t77 90.5t112.5 32q53 0 94.5 -22.5t63.5 -63.5v74h124zM380.5 130q32.5 41 32.5 116q0 76 -32.5 117t-92.5 41q-59 0 -92 -42t-33 -118q0 -74 33 -114.5t93 -40.5
q59 0 91.5 41zM226 581.5q-31 30.5 -31 74.5q0 43 31 73.5t75 30.5t75 -30.5t31 -73.5q0 -44 -31 -74.5t-75 -30.5t-75 30.5zM333 622q13 14 13 34t-13 33.5t-32 13.5t-32 -13.5t-13 -33.5t13 -34t32 -14t32 14z" />
    <glyph glyph-name="aringacute.ss01" horiz-adv-x="601" 
d="M225 582q-31 30 -31 74t31 74t76 30q37 0 67 -23l-6 35l76 80l61 -45l-107 -97q15 -24 15 -54q0 -44 -31 -74t-75 -30q-45 0 -76 30zM268 689.5q-13 -13.5 -13 -33.5t13 -33.5t33 -13.5q19 0 32 13.5t13 33.5t-13 33.5t-32 13.5q-20 0 -33 -13.5zM537 489v-489h-124v79
q-22 -41 -63.5 -64t-94.5 -23q-64 0 -113 31t-76.5 88t-27.5 133t27.5 134.5t77 90.5t112.5 32q53 0 94.5 -22.5t63.5 -63.5v74h124zM380.5 130q32.5 41 32.5 116q0 76 -32.5 117t-92.5 41q-59 0 -92 -42t-33 -118q0 -74 33 -114.5t93 -40.5q59 0 91.5 41z" />
    <glyph glyph-name="atilde.ss01" horiz-adv-x="601" 
d="M537 489v-489h-124v79q-22 -41 -63.5 -64t-94.5 -23q-64 0 -113 31t-76.5 88t-27.5 133t27.5 134.5t77 90.5t112.5 32q53 0 94.5 -22.5t63.5 -63.5v74h124zM380.5 130q32.5 41 32.5 116q0 76 -32.5 117t-92.5 41q-59 0 -92 -42t-33 -118q0 -74 33 -114.5t93 -40.5
q59 0 91.5 41zM160 690.5q28 34.5 73 34.5q19 0 36 -7.5t43 -22.5q19 -12 32 -18t25 -6q20 0 31 14t13 37h57q0 -66 -28 -100t-73 -34q-19 0 -36 7.5t-43 22.5q-19 12 -32 18t-25 6q-20 0 -31 -14t-13 -37h-57q0 65 28 99.5z" />
    <glyph glyph-name="I_J.loclNLD" horiz-adv-x="639" 
d="M76 0v705h129v-705h-129zM275 95l70 5q89 6 89 98v507h129v-506q0 -94 -49.5 -145.5t-147.5 -57.5l-82 -5z" />
    <glyph glyph-name="i_j.loclNLD" horiz-adv-x="508" 
d="M65 0v489h125v-489h-125zM58 716h138v-123h-138v123zM444 22q0 -103 -48 -150t-160 -54l-47 -3l-9 91l49 4q46 3 68 24.5t22 65.5v489h125v-467zM311 716h138v-123h-138v123z" />
    <glyph glyph-name="ordfeminine" unicode="&#xaa;" horiz-adv-x="336" 
d="M273 678q34 -32 34 -100v-170h-99v47q-11 -25 -33.5 -38.5t-50.5 -13.5q-44 0 -73.5 28.5t-29.5 65.5q0 45 37 65t129 20h20v13q0 20 -12 29.5t-37 9.5q-49 0 -96 -26l-21 73q26 13 59.5 21t68.5 8q70 0 104 -32zM191.5 486q15.5 14 15.5 38v10h-10q-47 0 -64 -8t-17 -24
q0 -13 10 -21.5t27 -8.5q23 0 38.5 14z" />
    <glyph glyph-name="ordmasculine" unicode="&#xba;" horiz-adv-x="362" 
d="M60 446.5q-42 43.5 -42 110.5t42 110t121 43q78 0 120.5 -43.5t42.5 -109.5q0 -67 -42.5 -110.5t-120.5 -43.5q-79 0 -121 43.5zM226 504q16 19 16 53q0 35 -15.5 53t-45.5 18q-29 0 -44 -18t-15 -53q0 -34 15.5 -53t43.5 -19q29 0 45 19z" />
    <glyph glyph-name="uni0394" unicode="&#x394;" horiz-adv-x="742" 
d="M512 499l197 -421l-197 -78l-481 9l91 283l212 413zM166 106h409l-204 458z" />
    <glyph glyph-name="Sigma" unicode="&#x3a3;" horiz-adv-x="597" 
d="M551 705v-104h-361l213 -298v-80l-213 -299h361v-104h-508v93l248 350l-248 349v93h508z" />
    <glyph glyph-name="uni03A9" unicode="&#x3a9;" horiz-adv-x="799" 
d="M734.5 361q-14.5 -43 -51.5 -102.5t-108 -154.5h163v-104h-279v101q94 148 127.5 220.5t33.5 125.5q0 78 -57.5 121t-162.5 43t-163 -43t-58 -121q0 -53 34 -124.5t128 -221.5v-101h-279v104h163q-73 98 -109.5 157t-51 101.5t-14.5 87.5q0 81 42.5 140.5t121.5 91.5
t186 32q105 0 184 -32.5t122 -92t43 -139.5q0 -46 -14.5 -89z" />
    <glyph glyph-name="uni03BC" unicode="&#x3bc;" horiz-adv-x="579" 
d="M514 489v-489h-122v75q-23 -40 -62 -61.5t-88 -21.5q-31 0 -55 9v-181h-125v669h125v-296q0 -52 21 -77t66 -25q52 0 83.5 34.5t31.5 91.5v272h125z" />
    <glyph glyph-name="pi" unicode="&#x3c0;" horiz-adv-x="603" 
d="M595 84l-9 -92l-47 3q-111 7 -159 54t-48 150v196h-104q-2 -108 -17 -202.5t-49 -192.5l-129 -1q32 105 49.5 200.5t21.5 195.5h-100v94h561v-94h-108v-216q0 -44 21.5 -66t67.5 -25z" />
    <glyph glyph-name="zero" unicode="0" 
d="M109 83.5q-66 92.5 -66 269.5q0 175 66 267t191 92t191 -92t66 -267q0 -176 -66 -269t-191 -93t-191 92.5zM399 154.5q31 62.5 31 198.5q0 135 -31 196.5t-99 61.5t-99 -61.5t-31 -196.5q0 -136 31 -198.5t99 -62.5t99 62.5z" />
    <glyph glyph-name="one" unicode="1" 
d="M396 104h153v-104h-435v104h153v454l-121 -73l-51 94l209 126h92v-601z" />
    <glyph glyph-name="two" unicode="2" horiz-adv-x="601" 
d="M547 104v-104h-474v95l240 258q42 46 61.5 84.5t19.5 76.5q0 48 -27.5 72.5t-80.5 24.5q-95 0 -191 -73l-43 94q42 37 107.5 59.5t131.5 22.5q106 0 168 -52t62 -140q0 -61 -26 -114.5t-88 -119.5l-173 -184h313z" />
    <glyph glyph-name="three" unicode="3" 
d="M504.5 301.5q33.5 -44.5 33.5 -110.5q0 -92 -67.5 -145.5t-183.5 -53.5q-71 0 -136.5 22t-108.5 60l43 94q92 -73 197 -73q67 0 100 26.5t33 80.5q0 53 -33.5 78.5t-103.5 25.5h-93v102h76q137 0 137 103q0 48 -29.5 74t-83.5 26q-47 0 -95.5 -18.5t-94.5 -54.5l-43 94
q42 38 107.5 60t133.5 22q104 0 166 -50.5t62 -136.5q-1 -59 -30.5 -102.5t-81.5 -62.5q62 -16 95.5 -60.5z" />
    <glyph glyph-name="four" unicode="4" 
d="M573 238v-100h-99v-138h-126v138h-306v95l328 472h104v-467h99zM162 238h186v269z" />
    <glyph glyph-name="five" unicode="5" 
d="M454.5 422.5q50.5 -28.5 78 -79.5t27.5 -117q0 -70 -32 -123t-90.5 -82t-137.5 -29q-66 0 -130.5 22.5t-106.5 59.5l43 94q96 -73 196 -73q66 0 101 33t35 94q0 59 -35.5 93.5t-96.5 34.5q-41 0 -77.5 -15.5t-65.5 -44.5h-77v415h442v-100h-316v-190q51 36 126 36
q66 0 116.5 -28.5z" />
    <glyph glyph-name="six" unicode="6" 
d="M455 423.5q49 -28.5 76.5 -80t27.5 -117.5q0 -68 -30 -121.5t-84 -83.5t-122 -30q-134 0 -206.5 90.5t-72.5 258.5q0 116 34.5 200.5t99.5 129t154 44.5q63 0 123 -21.5t104 -60.5l-43 -94q-93 73 -179 73q-77 0 -120 -65.5t-45 -189.5q23 45 69 70.5t103 25.5
q62 0 111 -28.5zM404.5 128q32.5 35 32.5 94q0 58 -33 93t-88 35t-89.5 -35.5t-34.5 -92.5q0 -58 34.5 -93.5t90.5 -35.5q55 0 87.5 35z" />
    <glyph glyph-name="seven" unicode="7" 
d="M55 705h491v-96l-320 -609h-137l319 601h-353v104z" />
    <glyph glyph-name="eight" unicode="8" 
d="M530.5 300q33.5 -45 33.5 -110q0 -93 -70 -145.5t-194 -52.5t-194 52.5t-70 145.5q0 65 34 110.5t96 61.5q-53 20 -83 62.5t-30 99.5q0 88 66 139t181 51t181 -51t66 -139q0 -58 -30 -101t-82 -61q62 -17 95.5 -62zM175 511q0 -51 31.5 -77.5t93.5 -26.5t93.5 26.5
t31.5 77.5q0 102 -125 102t-125 -102zM443 200q0 107 -143 107t-143 -107t143 -107t143 107z" />
    <glyph glyph-name="nine" unicode="9" 
d="M483.5 623.5q72.5 -90.5 72.5 -258.5q0 -116 -34.5 -200.5t-99.5 -129t-154 -44.5q-63 0 -123 21.5t-104 60.5l43 94q93 -73 179 -73q79 0 121.5 66t44.5 191q-23 -45 -69 -71.5t-103 -26.5q-63 0 -112 28.5t-76.5 80t-27.5 117.5q0 68 30.5 121.5t84 83.5t121.5 30
q134 0 206.5 -90.5zM374.5 390.5q34.5 35.5 34.5 92.5q0 58 -34.5 93.5t-90.5 35.5q-55 0 -88 -35.5t-33 -93.5t33 -93t88 -35q56 0 90.5 35.5z" />
    <glyph glyph-name="one.ss01" 
d="M305 705h92v-705h-129v558l-122 -73l-50 94z" />
    <glyph glyph-name="one.tosf.ss01" 
d="M305 489h92v-489h-129v342l-122 -73l-50 94z" />
    <glyph glyph-name="zero.tosf" 
d="M167 24.5q-59 32.5 -92.5 90.5t-33.5 132t33.5 132t92.5 90t133 32t133 -32t92.5 -90t33.5 -132t-33.5 -132t-92.5 -90.5t-133 -32.5t-133 32.5zM401.5 132.5q38.5 43.5 38.5 114.5t-38.5 114.5t-101.5 43.5t-101.5 -43.5t-38.5 -114.5t38.5 -114.5t101.5 -43.5
t101.5 43.5z" />
    <glyph glyph-name="one.tosf" 
d="M396 94h153v-94h-435v94h153v261l-126 -76l-46 84l209 126h92v-395z" />
    <glyph glyph-name="two.tosf" 
d="M527 95v-95h-440v93q160 71 227.5 127t67.5 109q0 74 -98 74q-81 0 -179 -51l-36 88q47 29 107.5 45t121.5 16q99 0 155 -42t56 -118q0 -74 -62 -135.5t-192 -110.5h272z" />
    <glyph glyph-name="three.tosf" 
d="M494 104q32 -43 32 -101q0 -57 -30 -100t-84.5 -67t-125.5 -24q-68 0 -129.5 16.5t-107.5 45.5l36 87q51 -27 97 -39t97 -12q124 0 124 104q0 47 -35.5 72.5t-103.5 25.5h-79v95h62q67 0 102.5 27.5t35.5 78.5q0 43 -27.5 66.5t-77.5 23.5q-79 0 -175 -51l-36 88
q45 28 104 44.5t114 16.5q108 0 165 -47t57 -131q-1 -53 -29 -95.5t-75 -62.5q57 -18 89 -61z" />
    <glyph glyph-name="four.tosf" 
d="M558 95v-95h-89v-180h-118v180h-304v96l318 393h104v-394h89zM158 95h193v240z" />
    <glyph glyph-name="five.tosf" 
d="M450.5 220.5q48.5 -27.5 75 -76.5t26.5 -113q0 -101 -67.5 -160t-182.5 -59q-59 0 -119 17t-103 45l36 87q95 -51 183 -51q61 0 95.5 33t34.5 88q0 54 -34 86.5t-91 32.5q-39 0 -75.5 -15.5t-64.5 -44.5h-69v399h425v-95h-307v-184q56 38 126 38q63 0 111.5 -27.5z" />
    <glyph glyph-name="six.tosf" 
d="M451 425q48 -27 76 -78.5t28 -122.5q0 -67 -30 -120t-82.5 -83t-119.5 -30q-130 0 -202 91t-72 258q0 116 34.5 200.5t99 129t152.5 44.5q50 0 106.5 -17t96.5 -45l-36 -87q-84 51 -161 51q-78 0 -122.5 -69.5t-45.5 -194.5q23 46 69 73t102 27q59 0 107 -27zM403 126
q33 37 33 96t-33.5 96t-86.5 37t-88 -37.5t-35 -95.5q0 -59 35 -96t89 -37q53 0 86 37z" />
    <glyph glyph-name="seven.tosf" 
d="M65 489h471v-96l-311 -573h-134l314 574h-340v95z" />
    <glyph glyph-name="eight.tosf" 
d="M525 299q34 -45 34 -109q0 -60 -32 -104.5t-90.5 -69t-136.5 -24.5t-136.5 24.5t-90.5 69t-32 104.5q0 65 34.5 110t96.5 62q-53 20 -83.5 63t-30.5 99q0 57 30 100t85 66.5t127 23.5t127 -23.5t85 -66.5t30 -100t-30 -100t-82 -62q61 -18 95 -63zM210 589
q-33 -28 -33 -77q0 -48 33.5 -77t89.5 -29t89.5 29t33.5 77q0 49 -33 77t-90 28t-90 -28zM403.5 118q37.5 29 37.5 80t-37.5 80t-103.5 29t-103.5 -29t-37.5 -80t37.5 -80t103.5 -29t103.5 29z" />
    <glyph glyph-name="nine.tosf" 
d="M478.5 412q72.5 -88 72.5 -243q0 -107 -34.5 -187.5t-99.5 -124.5t-152 -44q-50 0 -106.5 17t-95.5 45l35 87q86 -51 161 -51t120 62.5t48 169.5q-23 -45 -66.5 -71t-97.5 -26q-63 0 -112.5 28.5t-77 79.5t-27.5 117q0 65 30 117t82.5 82t118.5 30q129 0 201.5 -88z
M372 180.5q35 36.5 35 92.5t-35 92.5t-88 36.5t-86 -36t-33 -93t33.5 -93t85.5 -36q53 0 88 36.5z" />
    <glyph glyph-name="uni2080" unicode="&#x2080;" horiz-adv-x="380" 
d="M68.5 51q-43.5 55 -43.5 162q0 105 43.5 159.5t121.5 54.5t121.5 -55t43.5 -160q0 -106 -43.5 -161t-121.5 -55t-121.5 55zM235.5 108.5q14.5 31.5 14.5 103.5q0 70 -15 102t-45 32q-31 0 -45.5 -31.5t-14.5 -102.5q0 -72 14.5 -103.5t45.5 -31.5t45.5 31.5z" />
    <glyph glyph-name="uni2081" unicode="&#x2081;" horiz-adv-x="380" 
d="M271 86h78v-86h-265v86h78v220l-67 -37l-43 75l141 79h78v-337z" />
    <glyph glyph-name="uni2082" unicode="&#x2082;" horiz-adv-x="380" 
d="M344 86v-86h-296v79l136 146q40 43 40 76q0 43 -54 43q-26 0 -56 -10t-58 -29l-22 79q29 19 71 31t83 12q66 0 105.5 -33t39.5 -86q0 -36 -17 -68.5t-61 -74.5l-81 -79h170z" />
    <glyph glyph-name="uni2083" unicode="&#x2083;" horiz-adv-x="380" 
d="M323.5 181q20.5 -26 20.5 -65q0 -53 -42 -86.5t-119 -33.5q-41 0 -83.5 12t-70.5 31l21 78q60 -38 125 -38q67 0 67 46q0 24 -16.5 35t-49.5 11h-65v84h54q33 0 49 11t16 35q0 43 -56 43q-28 0 -59 -10t-59 -29l-22 79q28 19 70 31t78 12q72 0 111.5 -33t39.5 -83
q0 -33 -17.5 -57.5t-48.5 -35.5q36 -11 56.5 -37z" />
    <glyph glyph-name="uni2084" unicode="&#x2084;" horiz-adv-x="380" 
d="M367 150v-79h-60v-71h-97v71h-189v75l200 277h86v-273h60zM110 150h100v137z" />
    <glyph glyph-name="uni2085" unicode="&#x2085;" horiz-adv-x="380" 
d="M315 239q38 -36 38 -98q0 -67 -46.5 -106t-118.5 -39q-39 0 -81.5 12t-69.5 31l22 78q59 -37 119 -37q36 0 55 14.5t19 41.5q0 26 -18 41t-51 15q-41 0 -81 -24h-51v255h279v-85h-182v-81q30 18 71 18q58 0 96 -36z" />
    <glyph glyph-name="uni2086" unicode="&#x2086;" horiz-adv-x="380" 
d="M316 235.5q38 -34.5 38 -96.5q0 -66 -43.5 -104.5t-110.5 -38.5q-79 0 -125 52t-46 156q0 108 51.5 165.5t136.5 57.5q32 0 68 -11t65 -32l-21 -79q-56 38 -110 38q-41 0 -62.5 -26t-25.5 -84q15 18 39.5 27.5t51.5 9.5q56 0 94 -34.5zM244 88.5q16 16.5 16 45.5
t-15.5 45.5t-43.5 16.5q-29 0 -46 -16.5t-17 -45.5t16.5 -45.5t44.5 -16.5q29 0 45 16.5z" />
    <glyph glyph-name="uni2087" unicode="&#x2087;" horiz-adv-x="380" 
d="M35 423h310v-86l-173 -338l-121 1l177 334h-193v89z" />
    <glyph glyph-name="uni2088" unicode="&#x2088;" horiz-adv-x="380" 
d="M337.5 181q20.5 -26 20.5 -64q0 -56 -44.5 -88.5t-123.5 -32.5t-123.5 32.5t-44.5 88.5q0 38 20.5 64.5t58.5 36.5q-32 12 -50.5 37t-18.5 57q0 53 42.5 84t115.5 31q74 0 116 -31t42 -84q0 -33 -18.5 -58.5t-50.5 -35.5q38 -11 58.5 -37zM129 301q0 -23 16 -35.5
t45 -12.5t45 12.5t16 35.5q0 48 -61 48t-61 -48zM243 86q18 13 18 38q0 24 -18 37.5t-53 13.5t-53 -13.5t-18 -37.5q0 -51 71 -51q35 0 53 13z" />
    <glyph glyph-name="uni2089" unicode="&#x2089;" horiz-adv-x="380" 
d="M305 375q46 -52 46 -156q0 -108 -51.5 -165.5t-136.5 -57.5q-32 0 -68 11t-65 32l21 79q59 -38 110 -38q41 0 62.5 26t25.5 84q-15 -18 -39.5 -27.5t-51.5 -9.5q-56 0 -94 34.5t-38 96.5q0 66 43.5 104.5t110.5 38.5q79 0 125 -52zM225 243.5q17 16.5 17 45.5t-16.5 45.5
t-44.5 16.5q-29 0 -45 -16.5t-16 -45.5t15.5 -45.5t43.5 -16.5q29 0 46 16.5z" />
    <glyph glyph-name="zero.dnom" horiz-adv-x="380" 
d="M68.5 51q-43.5 55 -43.5 162q0 105 43.5 159.5t121.5 54.5t121.5 -55t43.5 -160q0 -106 -43.5 -161t-121.5 -55t-121.5 55zM235.5 108.5q14.5 31.5 14.5 103.5q0 70 -15 102t-45 32q-31 0 -45.5 -31.5t-14.5 -102.5q0 -72 14.5 -103.5t45.5 -31.5t45.5 31.5z" />
    <glyph glyph-name="one.dnom" horiz-adv-x="380" 
d="M271 86h78v-86h-265v86h78v220l-67 -37l-43 75l141 79h78v-337z" />
    <glyph glyph-name="two.dnom" horiz-adv-x="380" 
d="M344 86v-86h-296v79l136 146q40 43 40 76q0 43 -54 43q-26 0 -56 -10t-58 -29l-22 79q29 19 71 31t83 12q66 0 105.5 -33t39.5 -86q0 -36 -17 -68.5t-61 -74.5l-81 -79h170z" />
    <glyph glyph-name="three.dnom" horiz-adv-x="380" 
d="M323.5 181q20.5 -26 20.5 -65q0 -53 -42 -86.5t-119 -33.5q-41 0 -83.5 12t-70.5 31l21 78q60 -38 125 -38q67 0 67 46q0 24 -16.5 35t-49.5 11h-65v84h54q33 0 49 11t16 35q0 43 -56 43q-28 0 -59 -10t-59 -29l-22 79q28 19 70 31t78 12q72 0 111.5 -33t39.5 -83
q0 -33 -17.5 -57.5t-48.5 -35.5q36 -11 56.5 -37z" />
    <glyph glyph-name="four.dnom" horiz-adv-x="380" 
d="M367 150v-79h-60v-71h-97v71h-189v75l200 277h86v-273h60zM110 150h100v137z" />
    <glyph glyph-name="five.dnom" horiz-adv-x="380" 
d="M315 239q38 -36 38 -98q0 -67 -46.5 -106t-118.5 -39q-39 0 -81.5 12t-69.5 31l22 78q59 -37 119 -37q36 0 55 14.5t19 41.5q0 26 -18 41t-51 15q-41 0 -81 -24h-51v255h279v-85h-182v-81q30 18 71 18q58 0 96 -36z" />
    <glyph glyph-name="six.dnom" horiz-adv-x="380" 
d="M316 235.5q38 -34.5 38 -96.5q0 -66 -43.5 -104.5t-110.5 -38.5q-79 0 -125 52t-46 156q0 108 51.5 165.5t136.5 57.5q32 0 68 -11t65 -32l-21 -79q-56 38 -110 38q-41 0 -62.5 -26t-25.5 -84q15 18 39.5 27.5t51.5 9.5q56 0 94 -34.5zM244 88.5q16 16.5 16 45.5
t-15.5 45.5t-43.5 16.5q-29 0 -46 -16.5t-17 -45.5t16.5 -45.5t44.5 -16.5q29 0 45 16.5z" />
    <glyph glyph-name="seven.dnom" horiz-adv-x="380" 
d="M35 423h310v-86l-173 -338l-121 1l177 334h-193v89z" />
    <glyph glyph-name="eight.dnom" horiz-adv-x="380" 
d="M337.5 181q20.5 -26 20.5 -64q0 -56 -44.5 -88.5t-123.5 -32.5t-123.5 32.5t-44.5 88.5q0 38 20.5 64.5t58.5 36.5q-32 12 -50.5 37t-18.5 57q0 53 42.5 84t115.5 31q74 0 116 -31t42 -84q0 -33 -18.5 -58.5t-50.5 -35.5q38 -11 58.5 -37zM129 301q0 -23 16 -35.5
t45 -12.5t45 12.5t16 35.5q0 48 -61 48t-61 -48zM243 86q18 13 18 38q0 24 -18 37.5t-53 13.5t-53 -13.5t-18 -37.5q0 -51 71 -51q35 0 53 13z" />
    <glyph glyph-name="nine.dnom" horiz-adv-x="380" 
d="M305 375q46 -52 46 -156q0 -108 -51.5 -165.5t-136.5 -57.5q-32 0 -68 11t-65 32l21 79q59 -38 110 -38q41 0 62.5 26t25.5 84q-15 -18 -39.5 -27.5t-51.5 -9.5q-56 0 -94 34.5t-38 96.5q0 66 43.5 104.5t110.5 38.5q79 0 125 -52zM225 243.5q17 16.5 17 45.5t-16.5 45.5
t-44.5 16.5q-29 0 -45 -16.5t-16 -45.5t15.5 -45.5t43.5 -16.5q29 0 46 16.5z" />
    <glyph glyph-name="zero.numr" horiz-adv-x="380" 
d="M68.5 333q-43.5 55 -43.5 162q0 105 43.5 159.5t121.5 54.5t121.5 -55t43.5 -160q0 -106 -43.5 -161t-121.5 -55t-121.5 55zM235.5 390.5q14.5 31.5 14.5 103.5q0 70 -15 102t-45 32q-31 0 -45.5 -31.5t-14.5 -102.5q0 -72 14.5 -103.5t45.5 -31.5t45.5 31.5z" />
    <glyph glyph-name="one.numr" horiz-adv-x="380" 
d="M271 368h78v-86h-265v86h78v220l-67 -37l-43 75l141 79h78v-337z" />
    <glyph glyph-name="two.numr" horiz-adv-x="380" 
d="M344 368v-86h-296v79l136 146q40 43 40 76q0 43 -54 43q-26 0 -56 -10t-58 -29l-22 79q29 19 71 31t83 12q66 0 105.5 -33t39.5 -86q0 -36 -17 -68.5t-61 -74.5l-81 -79h170z" />
    <glyph glyph-name="three.numr" horiz-adv-x="380" 
d="M323.5 463q20.5 -26 20.5 -65q0 -53 -42 -86.5t-119 -33.5q-41 0 -83.5 12t-70.5 31l21 78q60 -38 125 -38q67 0 67 46q0 24 -16.5 35t-49.5 11h-65v84h54q33 0 49 11t16 35q0 43 -56 43q-28 0 -59 -10t-59 -29l-22 79q28 19 70 31t78 12q72 0 111.5 -33t39.5 -83
q0 -33 -17.5 -57.5t-48.5 -35.5q36 -11 56.5 -37z" />
    <glyph glyph-name="four.numr" horiz-adv-x="380" 
d="M367 432v-79h-60v-71h-97v71h-189v75l200 277h86v-273h60zM110 432h100v137z" />
    <glyph glyph-name="five.numr" horiz-adv-x="380" 
d="M315 521q38 -36 38 -98q0 -67 -46.5 -106t-118.5 -39q-39 0 -81.5 12t-69.5 31l22 78q59 -37 119 -37q36 0 55 14.5t19 41.5q0 26 -18 41t-51 15q-41 0 -81 -24h-51v255h279v-85h-182v-81q30 18 71 18q58 0 96 -36z" />
    <glyph glyph-name="six.numr" horiz-adv-x="380" 
d="M316 517.5q38 -34.5 38 -96.5q0 -66 -43.5 -104.5t-110.5 -38.5q-79 0 -125 52t-46 156q0 108 51.5 165.5t136.5 57.5q32 0 68 -11t65 -32l-21 -79q-56 38 -110 38q-41 0 -62.5 -26t-25.5 -84q15 18 39.5 27.5t51.5 9.5q56 0 94 -34.5zM244 370.5q16 16.5 16 45.5
t-15.5 45.5t-43.5 16.5q-29 0 -46 -16.5t-17 -45.5t16.5 -45.5t44.5 -16.5q29 0 45 16.5z" />
    <glyph glyph-name="seven.numr" horiz-adv-x="380" 
d="M35 705h310v-86l-173 -338l-121 1l177 334h-193v89z" />
    <glyph glyph-name="eight.numr" horiz-adv-x="380" 
d="M337.5 463q20.5 -26 20.5 -64q0 -56 -44.5 -88.5t-123.5 -32.5t-123.5 32.5t-44.5 88.5q0 38 20.5 64.5t58.5 36.5q-32 12 -50.5 37t-18.5 57q0 53 42.5 84t115.5 31q74 0 116 -31t42 -84q0 -33 -18.5 -58.5t-50.5 -35.5q38 -11 58.5 -37zM129 583q0 -23 16 -35.5
t45 -12.5t45 12.5t16 35.5q0 48 -61 48t-61 -48zM243 368q18 13 18 38q0 24 -18 37.5t-53 13.5t-53 -13.5t-18 -37.5q0 -51 71 -51q35 0 53 13z" />
    <glyph glyph-name="nine.numr" horiz-adv-x="380" 
d="M305 657q46 -52 46 -156q0 -108 -51.5 -165.5t-136.5 -57.5q-32 0 -68 11t-65 32l21 79q59 -38 110 -38q41 0 62.5 26t25.5 84q-15 -18 -39.5 -27.5t-51.5 -9.5q-56 0 -94 34.5t-38 96.5q0 66 43.5 104.5t110.5 38.5q79 0 125 -52zM225 525.5q17 16.5 17 45.5t-16.5 45.5
t-44.5 16.5q-29 0 -45 -16.5t-16 -45.5t15.5 -45.5t43.5 -16.5q29 0 46 16.5z" />
    <glyph glyph-name="uni2070" unicode="&#x2070;" horiz-adv-x="380" 
d="M68.5 333q-43.5 55 -43.5 162q0 105 43.5 159.5t121.5 54.5t121.5 -55t43.5 -160q0 -106 -43.5 -161t-121.5 -55t-121.5 55zM235.5 390.5q14.5 31.5 14.5 103.5q0 70 -15 102t-45 32q-31 0 -45.5 -31.5t-14.5 -102.5q0 -72 14.5 -103.5t45.5 -31.5t45.5 31.5z" />
    <glyph glyph-name="uni00B9" unicode="&#xb9;" horiz-adv-x="380" 
d="M271 368h78v-86h-265v86h78v220l-67 -37l-43 75l141 79h78v-337z" />
    <glyph glyph-name="uni00B2" unicode="&#xb2;" horiz-adv-x="380" 
d="M344 368v-86h-296v79l136 146q40 43 40 76q0 43 -54 43q-26 0 -56 -10t-58 -29l-22 79q29 19 71 31t83 12q66 0 105.5 -33t39.5 -86q0 -36 -17 -68.5t-61 -74.5l-81 -79h170z" />
    <glyph glyph-name="uni00B3" unicode="&#xb3;" horiz-adv-x="380" 
d="M323.5 463q20.5 -26 20.5 -65q0 -53 -42 -86.5t-119 -33.5q-41 0 -83.5 12t-70.5 31l21 78q60 -38 125 -38q67 0 67 46q0 24 -16.5 35t-49.5 11h-65v84h54q33 0 49 11t16 35q0 43 -56 43q-28 0 -59 -10t-59 -29l-22 79q28 19 70 31t78 12q72 0 111.5 -33t39.5 -83
q0 -33 -17.5 -57.5t-48.5 -35.5q36 -11 56.5 -37z" />
    <glyph glyph-name="uni2074" unicode="&#x2074;" horiz-adv-x="380" 
d="M367 432v-79h-60v-71h-97v71h-189v75l200 277h86v-273h60zM110 432h100v137z" />
    <glyph glyph-name="uni2075" unicode="&#x2075;" horiz-adv-x="380" 
d="M315 521q38 -36 38 -98q0 -67 -46.5 -106t-118.5 -39q-39 0 -81.5 12t-69.5 31l22 78q59 -37 119 -37q36 0 55 14.5t19 41.5q0 26 -18 41t-51 15q-41 0 -81 -24h-51v255h279v-85h-182v-81q30 18 71 18q58 0 96 -36z" />
    <glyph glyph-name="uni2076" unicode="&#x2076;" horiz-adv-x="380" 
d="M316 517.5q38 -34.5 38 -96.5q0 -66 -43.5 -104.5t-110.5 -38.5q-79 0 -125 52t-46 156q0 108 51.5 165.5t136.5 57.5q32 0 68 -11t65 -32l-21 -79q-56 38 -110 38q-41 0 -62.5 -26t-25.5 -84q15 18 39.5 27.5t51.5 9.5q56 0 94 -34.5zM244 370.5q16 16.5 16 45.5
t-15.5 45.5t-43.5 16.5q-29 0 -46 -16.5t-17 -45.5t16.5 -45.5t44.5 -16.5q29 0 45 16.5z" />
    <glyph glyph-name="uni2077" unicode="&#x2077;" horiz-adv-x="380" 
d="M35 705h310v-86l-173 -338l-121 1l177 334h-193v89z" />
    <glyph glyph-name="uni2078" unicode="&#x2078;" horiz-adv-x="380" 
d="M337.5 463q20.5 -26 20.5 -64q0 -56 -44.5 -88.5t-123.5 -32.5t-123.5 32.5t-44.5 88.5q0 38 20.5 64.5t58.5 36.5q-32 12 -50.5 37t-18.5 57q0 53 42.5 84t115.5 31q74 0 116 -31t42 -84q0 -33 -18.5 -58.5t-50.5 -35.5q38 -11 58.5 -37zM129 583q0 -23 16 -35.5
t45 -12.5t45 12.5t16 35.5q0 48 -61 48t-61 -48zM243 368q18 13 18 38q0 24 -18 37.5t-53 13.5t-53 -13.5t-18 -37.5q0 -51 71 -51q35 0 53 13z" />
    <glyph glyph-name="uni2079" unicode="&#x2079;" horiz-adv-x="380" 
d="M305 657q46 -52 46 -156q0 -108 -51.5 -165.5t-136.5 -57.5q-32 0 -68 11t-65 32l21 79q59 -38 110 -38q41 0 62.5 26t25.5 84q-15 -18 -39.5 -27.5t-51.5 -9.5q-56 0 -94 34.5t-38 96.5q0 66 43.5 104.5t110.5 38.5q79 0 125 -52zM225 525.5q17 16.5 17 45.5t-16.5 45.5
t-44.5 16.5q-29 0 -45 -16.5t-16 -45.5t15.5 -45.5t43.5 -16.5q29 0 46 16.5z" />
    <glyph glyph-name="fraction" unicode="&#x2044;" horiz-adv-x="190" 
d="M-70 -28l-83 48l413 713l83 -48z" />
    <glyph glyph-name="onehalf" unicode="&#xbd;" horiz-adv-x="950" 
d="M271 368h78v-86h-265v86h78v220l-67 -37l-43 75l141 79h78v-337zM310 -28l-83 48l413 713l83 -48zM914 86v-86h-296v79l136 146q40 43 40 76q0 43 -54 43q-26 0 -56 -10t-58 -29l-22 79q29 19 71 31t83 12q66 0 105.5 -33t39.5 -86q0 -36 -17 -68.5t-61 -74.5l-81 -79
h170z" />
    <glyph glyph-name="onequarter" unicode="&#xbc;" horiz-adv-x="950" 
d="M271 368h78v-86h-265v86h78v220l-67 -37l-43 75l141 79h78v-337zM310 -28l-83 48l413 713l83 -48zM937 150v-79h-60v-71h-97v71h-189v75l200 277h86v-273h60zM680 150h100v137z" />
    <glyph glyph-name="threequarters" unicode="&#xbe;" horiz-adv-x="950" 
d="M323.5 463q20.5 -26 20.5 -65q0 -53 -42 -86.5t-119 -33.5q-41 0 -83.5 12t-70.5 31l21 78q60 -38 125 -38q67 0 67 46q0 24 -16.5 35t-49.5 11h-65v84h54q33 0 49 11t16 35q0 43 -56 43q-28 0 -59 -10t-59 -29l-22 79q28 19 70 31t78 12q72 0 111.5 -33t39.5 -83
q0 -33 -17.5 -57.5t-48.5 -35.5q36 -11 56.5 -37zM310 -28l-83 48l413 713l83 -48zM937 150v-79h-60v-71h-97v71h-189v75l200 277h86v-273h60zM680 150h100v137z" />
    <glyph glyph-name="asterisk" unicode="*" horiz-adv-x="452" 
d="M421 571v-88l-131 7l72 -110l-76 -44l-60 118l-60 -117l-75 43l72 111l-132 -7v87l132 -7l-72 111l75 44l60 -118l60 118l76 -45l-72 -110z" />
    <glyph glyph-name="backslash" unicode="\" horiz-adv-x="312" 
d="M237 -73l-257 804l95 30l257 -804z" />
    <glyph glyph-name="periodcentered" unicode="&#xb7;" horiz-adv-x="248" 
d="M54 336h140v-138h-140v138z" />
    <glyph glyph-name="bullet" unicode="&#x2022;" horiz-adv-x="524" 
d="M172 111.5q-42 23.5 -66.5 64t-24.5 89.5q0 46 23.5 87t65 66t92.5 25q48 0 89.5 -23.5t66.5 -64t25 -90.5q0 -48 -24.5 -88.5t-66 -64.5t-90.5 -24q-48 0 -90 23.5z" />
    <glyph glyph-name="colon" unicode=":" horiz-adv-x="248" 
d="M54 489h140v-138h-140v138zM54 138h140v-138h-140v138z" />
    <glyph glyph-name="comma" unicode="," horiz-adv-x="248" 
d="M194 138v-91q0 -52 -18 -94.5t-61 -85.5l-51 40q47 50 54 93h-64v138h140z" />
    <glyph glyph-name="ellipsis" unicode="&#x2026;" horiz-adv-x="745" 
d="M54 138h140v-138h-140v138zM303 138h139v-138h-139v138zM551 138h140v-138h-140v138z" />
    <glyph glyph-name="exclam" unicode="!" horiz-adv-x="248" 
d="M86 212l-39 494l154 -1l-39 -493h-76zM54 138h140v-138h-140v138z" />
    <glyph glyph-name="exclamdown" unicode="&#xa1;" horiz-adv-x="248" 
d="M54 351v138h140v-138h-140zM86 277h76l39 -456l-154 -1z" />
    <glyph glyph-name="numbersign" unicode="#" 
d="M556 461h-84l-42 -209h105v-81h-121l-34 -171h-86l34 171h-127l-34 -171h-87l34 171h-70v81h86l42 209h-107v81h123l32 163h86l-32 -163h127l32 163h87l-32 -163h68v-81zM344 252l41 209h-127l-41 -209h127z" />
    <glyph glyph-name="period" unicode="." horiz-adv-x="248" 
d="M54 138h140v-138h-140v138z" />
    <glyph glyph-name="question" unicode="?" horiz-adv-x="459" 
d="M182 249q0 55 20 93t58 83q29 35 43 59t14 54q0 34 -24 53.5t-67 19.5t-90.5 -19t-93.5 -54l-42 94q41 37 106 59t130 22q61 0 108 -20.5t73.5 -58t26.5 -85.5q0 -52 -25 -91t-72 -86q-41 -44 -61.5 -72t-25.5 -64l-4 -27h-74v40zM151 0v138h140v-138h-140z" />
    <glyph glyph-name="questiondown" unicode="&#xbf;" horiz-adv-x="459" 
d="M168 351v138h140v-138h-140zM118 -168.5q-47 19.5 -75 57t-28 87.5q0 49 24.5 82.5t71.5 73.5q40 33 61.5 59.5t26.5 61.5l4 28h73v-41q0 -54 -20.5 -88t-58.5 -71q-28 -27 -41.5 -47t-13.5 -47q0 -32 23.5 -52t66.5 -20q41 0 89 18t95 54l43 -93q-43 -38 -107.5 -60
t-128.5 -22q-58 0 -105 19.5z" />
    <glyph glyph-name="quotedbl" unicode="&#x22;" horiz-adv-x="451" 
d="M80 414l-32 291h145l-30 -291h-83zM289 414l-32 291h145l-30 -291h-83z" />
    <glyph glyph-name="quotesingle" unicode="'" horiz-adv-x="242" 
d="M80 414l-32 291h145l-30 -291h-83z" />
    <glyph glyph-name="semicolon" unicode=";" horiz-adv-x="248" 
d="M54 489h140v-138h-140v138zM54 138h140v-91q0 -52 -18 -94.5t-61 -85.5l-51 40q47 50 54 93h-64v138z" />
    <glyph glyph-name="slash" unicode="/" horiz-adv-x="313" 
d="M75 -73l-95 30l257 804l95 -30z" />
    <glyph glyph-name="underscore" unicode="_" horiz-adv-x="500" 
d="M12 -75v75h476v-75h-476z" />
    <glyph glyph-name="periodcentered.loclCAT" horiz-adv-x="300" 
d="M80 317h140v-124h-140v124z" />
    <glyph glyph-name="braceleft" unicode="{" horiz-adv-x="388" 
d="M241.5 299.5q-23.5 -30.5 -55.5 -37.5q32 -7 55.5 -37t23.5 -75v-192q0 -23 10.5 -33.5t31.5 -10.5h69v-94h-112q-58 0 -89.5 32t-31.5 89v194q0 40 -14 58t-50 21l-36 3v91l36 3q36 3 50 21t14 58v194q0 57 31.5 89t89.5 32h112v-94h-69q-21 0 -31.5 -10.5t-10.5 -33.5
v-192q0 -45 -23.5 -75.5z" />
    <glyph glyph-name="braceright" unicode="}" horiz-adv-x="388" 
d="M345 308v-91l-36 -3q-36 -3 -50 -21t-14 -58v-194q0 -57 -31.5 -89t-89.5 -32h-112v94h69q21 0 31.5 10.5t10.5 33.5v192q0 45 23.5 75t55.5 37q-32 7 -55.5 37.5t-23.5 75.5v192q0 23 -10.5 33.5t-31.5 10.5h-69v94h112q58 0 89.5 -32t31.5 -89v-194q0 -40 14 -58
t50 -21z" />
    <glyph glyph-name="bracketleft" unicode="[" horiz-adv-x="351" 
d="M106 -180v885h233v-94h-111v-697h111v-94h-233z" />
    <glyph glyph-name="bracketright" unicode="]" horiz-adv-x="351" 
d="M245 -180h-233v94h111v697h-111v94h233v-885z" />
    <glyph glyph-name="parenleft" unicode="(" horiz-adv-x="352" 
d="M131 37q-30 108 -30 226t30 226t103 232l83 -34q-49 -121 -68.5 -220t-19.5 -204t19.5 -204t68.5 -220l-83 -34q-73 124 -103 232z" />
    <glyph glyph-name="parenright" unicode=")" horiz-adv-x="352" 
d="M35 -161q49 121 68.5 220t19.5 204t-19.5 204t-68.5 220l83 34q73 -124 103 -232t30 -226t-30 -226t-103 -232z" />
    <glyph glyph-name="emdash" unicode="&#x2014;" horiz-adv-x="1000" 
d="M0 230v74h1000v-74h-1000z" />
    <glyph glyph-name="endash" unicode="&#x2013;" horiz-adv-x="500" 
d="M0 230v74h500v-74h-500z" />
    <glyph glyph-name="figuredash" unicode="&#x2012;" 
d="M68 230v74h464v-74h-464z" />
    <glyph glyph-name="uni2015" unicode="&#x2015;" horiz-adv-x="1000" 
d="M0 230v74h1000v-74h-1000z" />
    <glyph glyph-name="hyphen" unicode="-" horiz-adv-x="434" 
d="M68 218v99h298v-99h-298z" />
    <glyph glyph-name="uni2010" unicode="&#x2010;" horiz-adv-x="434" 
d="M68 218v99h298v-99h-298z" />
    <glyph glyph-name="uni00AD" unicode="&#xad;" horiz-adv-x="434" 
d="M68 218v99h298v-99h-298z" />
    <glyph glyph-name="guillemotleft" unicode="&#xab;" horiz-adv-x="494" 
d="M162 74l-101 161v61l100 161l84 -37l-74 -154l74 -156zM369 74l-101 161v61l100 161l84 -37l-74 -154l74 -156z" />
    <glyph glyph-name="guillemotright" unicode="&#xbb;" horiz-adv-x="489" 
d="M125 74l-83 36l74 156l-74 154l84 37l99 -161v-61zM332 74l-83 36l74 156l-74 154l84 37l99 -161v-61z" />
    <glyph glyph-name="guilsinglleft" unicode="&#x2039;" horiz-adv-x="287" 
d="M162 74l-101 161v61l100 161l84 -37l-74 -154l74 -156z" />
    <glyph glyph-name="guilsinglright" unicode="&#x203a;" horiz-adv-x="283" 
d="M125 74l-83 36l74 156l-74 154l84 37l99 -161v-61z" />
    <glyph glyph-name="quotedblbase" unicode="&#x201e;" horiz-adv-x="440" 
d="M194 138v-91q0 -52 -18 -94.5t-61 -85.5l-51 40q47 50 54 93h-64v138h140zM386 138v-91q0 -52 -18 -94.5t-61 -85.5l-51 40q47 50 54 93h-64v138h140z" />
    <glyph glyph-name="quotedblleft" unicode="&#x201c;" horiz-adv-x="440" 
d="M194 579v-138h-140v91q0 52 18 94.5t61 85.5l51 -40q-24 -26 -37 -48t-17 -45h64zM386 579v-138h-140v91q0 52 18 94.5t61 85.5l51 -40q-24 -26 -37 -48t-17 -45h64z" />
    <glyph glyph-name="quotedblright" unicode="&#x201d;" horiz-adv-x="440" 
d="M194 705v-91q0 -53 -18 -95.5t-61 -84.5l-51 40q24 26 37 48t17 45h-64v138h140zM386 705v-91q0 -53 -18 -95.5t-61 -84.5l-51 40q24 26 37 48t17 45h-64v138h140z" />
    <glyph glyph-name="quoteleft" unicode="&#x2018;" horiz-adv-x="248" 
d="M194 579v-138h-140v91q0 52 18 94.5t61 85.5l51 -40q-24 -26 -37 -48t-17 -45h64z" />
    <glyph glyph-name="quoteright" unicode="&#x2019;" horiz-adv-x="248" 
d="M194 705v-91q0 -53 -18 -95.5t-61 -84.5l-51 40q24 26 37 48t17 45h-64v138h140z" />
    <glyph glyph-name="quotesinglbase" unicode="&#x201a;" horiz-adv-x="248" 
d="M194 138v-91q0 -52 -18 -94.5t-61 -85.5l-51 40q47 50 54 93h-64v138h140z" />
    <glyph glyph-name="uni2007" unicode="&#x2007;" 
 />
    <glyph glyph-name="uni200A" unicode="&#x200a;" horiz-adv-x="100" 
 />
    <glyph glyph-name="uni2008" unicode="&#x2008;" horiz-adv-x="248" 
 />
    <glyph glyph-name="uni00A0" unicode="&#xa0;" horiz-adv-x="271" 
 />
    <glyph glyph-name="uni2009" unicode="&#x2009;" horiz-adv-x="200" 
 />
    <glyph glyph-name="uni200B" unicode="&#x200b;" horiz-adv-x="0" 
 />
    <glyph glyph-name="uni20B5" unicode="&#x20b5;" 
d="M568 75q-31 -31 -76.5 -52t-92.5 -28v-110h-102v111q-115 20 -181 114t-66 243q0 148 65 242t180 114v111h101v-109q49 -8 94.5 -29t77.5 -52l-43 -94q-90 74 -166 74q-86 0 -132.5 -66.5t-46.5 -190.5t46.5 -191t132.5 -67q76 0 166 74z" />
    <glyph glyph-name="cent" unicode="&#xa2;" 
d="M518 54q-27 -24 -67 -39.5t-85 -20.5v-109h-101v114q-85 20 -134 84.5t-49 160.5q0 94 49.5 160.5t133.5 87.5v116h101v-108q45 -5 85.5 -20.5t66.5 -39.5l-35 -88q-30 25 -65.5 38t-68.5 13q-65 0 -101.5 -41t-36.5 -116t36 -115.5t101 -40.5q34 0 69 13t66 38z" />
    <glyph glyph-name="colonmonetary" unicode="&#x20a1;" 
d="M226.5 543.5q-46.5 -66.5 -46.5 -190.5t46.5 -191t132.5 -67q76 0 166 74l43 -94q-39 -38 -98 -61t-116 -23q-38 0 -69 7l-48 -121l-78 30l48 120q-30 16 -56 41l-54 -137l-78 29l75 187q-44 85 -44 206q0 103 32.5 181.5t93 124t143.5 53.5l43 108h87l-43 -111
q34 -6 65 -18l51 129h89l-67 -169q14 -11 24 -21l-43 -94q-90 74 -166 74q-86 0 -132.5 -66.5z" />
    <glyph glyph-name="currency" unicode="&#xa4;" 
d="M492 97l54 -56l-50 -50l-53 55q-63 -49 -144 -49t-144 49l-54 -55l-50 50l54 56q-23 31 -35.5 69t-12.5 79t12.5 79t35.5 69l-54 56l51 51l53 -55q64 48 144 48q77 0 142 -47l53 55l54 -54l-55 -55q47 -64 47 -147q0 -82 -48 -148zM368.5 116q32.5 20 51.5 54.5t19 74.5
q0 41 -19.5 75t-52 54t-70.5 20t-70 -20.5t-50.5 -54.5t-18.5 -74t19 -74.5t51 -54.5t71 -20q37 0 69.5 20z" />
    <glyph glyph-name="dollar" unicode="$" 
d="M510 64.5q-56 -55.5 -149 -69.5v-110h-102v108q-67 5 -123.5 26t-98.5 56l43 93q51 -38 103.5 -56t113.5 -18q68 0 104.5 26t36.5 75q0 29 -20 47t-49.5 28.5t-83.5 24.5q-76 19 -123 38.5t-81 60t-34 108.5q0 80 58.5 137t151.5 71v110h102v-109q57 -7 108.5 -28
t85.5 -52l-43 -93q-93 73 -199 73q-62 0 -98.5 -27t-36.5 -75q0 -33 21 -53.5t53.5 -32.5t87.5 -25q73 -18 118.5 -36.5t77.5 -57.5t32 -104q0 -80 -56 -135.5z" />
    <glyph glyph-name="dong" unicode="&#x20ab;" 
d="M588 548h-69v-548h-124v78q-21 -40 -60 -62.5t-86 -22.5q-59 0 -105 31t-71.5 89t-25.5 136q0 77 25.5 134t71.5 87.5t105 30.5q47 0 85.5 -22t59.5 -62v131h-144v76h144v81h125v-81h69v-76zM365.5 132q29.5 42 29.5 115t-29.5 115t-81.5 42q-51 0 -81 -41.5t-30 -113.5
q0 -73 30 -116t81 -43q52 0 81.5 42zM69 -148v76h450v-76h-450z" />
    <glyph glyph-name="Euro" unicode="&#x20ac;" 
d="M455.5 113q39.5 18 85.5 56l43 -94q-39 -38 -97 -61t-116 -23q-102 0 -168.5 64t-89.5 182h-94v79h85q-1 12 -1 37t1 37h-85v79h94q23 117 90 181t168 64q59 0 115.5 -22.5t97.5 -61.5l-43 -94q-46 38 -85.5 56t-79.5 18q-56 0 -89.5 -34.5t-46.5 -106.5h157v-79h-165
q-1 -12 -1 -37t1 -37h165v-79h-157q13 -73 46.5 -107.5t89.5 -34.5q40 0 79.5 18z" />
    <glyph glyph-name="florin" unicode="&#x192;" 
d="M418 524l-7 -31h114v-77h-130l-90 -420q-19 -94 -75.5 -137.5t-132.5 -43.5h-65v99h63q71 0 87 86l89 416h-113v77h130l7 35q19 94 75 138t132 44h65v-100h-63q-70 0 -86 -86z" />
    <glyph glyph-name="franc" unicode="&#x20a3;" 
d="M589 496v-101h-9q-136 0 -136 -130v-265h-120v306h-145v-306h-122v705h431v-104h-309v-190h145v78h111v-91q18 54 52 76t87 22h15z" />
    <glyph glyph-name="uni20B2" unicode="&#x20b2;" 
d="M320 381h238v-338q-85 -38 -168 -49v-109h-102v111q-115 20 -181 114t-66 243q0 148 65.5 242t179.5 114v111h102v-109q48 -8 93.5 -29t77.5 -52l-43 -94q-90 74 -166 74q-84 0 -131.5 -66t-47.5 -191t47 -192.5t128 -67.5q43 0 96 17v179h-122v92z" />
    <glyph glyph-name="uni20AD" unicode="&#x20ad;" 
d="M558 314h-200l243 -314h-141l-239 310v-310h-124v314h-78v77h78v314h124v-309l239 309h141l-243 -314h200v-77z" />
    <glyph glyph-name="lira" unicode="&#x20a4;" 
d="M253 104h313v-104h-522v104h82v133h-82v79h82v74h-82v79h82v48q0 59 27 103.5t76 69t114 24.5t125 -21.5t106 -61.5l-43 -93q-95 73 -179 73q-48 0 -73.5 -26.5t-25.5 -76.5v-39h169v-79h-169v-74h169v-79h-169v-133z" />
    <glyph glyph-name="uni20BA" unicode="&#x20ba;" 
d="M578 74q-95 -82 -247 -82q-96 0 -188 34v270l-83 -47v92l83 46v75l-83 -46v91l83 46v152h128v-80l167 93v-91l-167 -93v-75l167 93v-91l-167 -94v-261q35 -10 79 -10q93 0 185 71z" />
    <glyph glyph-name="uni20BC" unicode="&#x20bc;" 
d="M468 628.5q46 -66.5 70.5 -217t24.5 -411.5h-125q0 224 -9.5 351t-29 184t-52.5 72v-297h-94v297q-32 -16 -51 -74t-28.5 -184.5t-9.5 -348.5h-125q0 260 24.5 410.5t70 217t115.5 79.5v113h102v-112q71 -13 117 -79.5z" />
    <glyph glyph-name="uni20A6" unicode="&#x20a6;" 
d="M582 391h-86v-73h86v-80h-86v-238h-103l-182 440v-440h-107v238h-85v80h85v73h-85v79h85v235h103l182 -461v461h107v-235h86v-79z" />
    <glyph glyph-name="peseta" unicode="&#x20a7;" horiz-adv-x="1200" 
d="M1099.5 255.5q36.5 -18.5 52.5 -45.5t16 -68q0 -67 -55 -108.5t-145 -41.5q-106 0 -182 48l-3 -44q-30 -3 -55 -3q-103 0 -152 47.5t-49 141.5v213h-60q-20 -75 -78.5 -117.5t-141.5 -42.5h-54v-235h-124v705h178q101 0 162 -58t66 -158h52v146h125v-146h115v-94h-115
v-211q0 -98 91 -98q10 0 36 2l21 53q83 -54 166 -54q41 0 64 14t23 39t-23 38.5t-89 26.5q-83 18 -121 51.5t-38 90.5q0 44 25.5 79.5t70 55t100.5 19.5q48 0 96 -16.5t83 -44.5l-35 -85q-79 53 -149 53q-33 0 -54 -15.5t-21 -40.5q0 -24 20.5 -36.5t80.5 -26.5
q64 -15 100.5 -33.5zM329 367q28 33 28 102q0 71 -27.5 103.5t-86.5 32.5h-51v-271h51q58 0 86 33z" />
    <glyph glyph-name="uni20B1" unicode="&#x20b1;" 
d="M582 506h-73q2 -24 2 -36q0 -13 -2 -37h73v-79h-96q-26 -55 -78.5 -87t-125.5 -32h-54v-235h-124v354h-85v79h85v73h-85v80h85v119h178q74 0 126.5 -31.5t78.5 -87.5h95v-80zM364 366q28 32 28 103q0 72 -28 104t-86 32h-51v-271h51q58 0 86 32z" />
    <glyph glyph-name="uni20BD" unicode="&#x20bd;" 
d="M228 297v-73h165v-79h-165v-145h-124v145h-85v79h85v73h-85v80h85v328h239q113 0 175.5 -55.5t62.5 -145.5q0 -97 -62.5 -152t-175.5 -55h-115zM227 377h89q146 0 146 112q0 62 -34.5 91t-105.5 29h-95v-232z" />
    <glyph glyph-name="uni20B9" unicode="&#x20b9;" 
d="M448 626q29 -32 37 -74h94v-79h-89q-7 -71 -51.5 -117.5t-118.5 -60.5q30 -7 53.5 -24.5t45.5 -50.5l147 -220h-153l-149 225q-20 31 -42.5 44.5t-58.5 13.5h-142v100h211q57 0 90.5 23t41.5 67h-343v79h340q-24 74 -129 74h-211v79h558v-79h-131z" />
    <glyph glyph-name="sterling" unicode="&#xa3;" 
d="M253 104h313v-104h-522v104h82v209h-82v80h82v124q0 59 27 103.5t76 69t114 24.5t125 -21.5t106 -61.5l-43 -93q-95 73 -179 73q-48 0 -73.5 -26.5t-25.5 -76.5v-115h169v-80h-169v-209z" />
    <glyph glyph-name="uni20A9" unicode="&#x20a9;" 
d="M582 391h-79l-10 -73h89v-80h-99l-32 -238h-70l-81 466l-81 -466h-70l-32 238h-98v80h88l-10 73h-78v79h67l-31 235h95l46 -430l70 430h68l69 -430l47 430h95l-31 -235h68v-79z" />
    <glyph glyph-name="yen" unicode="&#xa5;" 
d="M616 705l-214 -309h130v-79h-168v-74h168v-79h-168v-164h-129v164h-167v79h167v74h-167v79h129l-213 309h139l177 -264l177 264h139z" />
    <glyph glyph-name="uni2219" unicode="&#x2219;" 
d="M230 336h140v-138h-140v138z" />
    <glyph glyph-name="uni2215" unicode="&#x2215;" 
d="M220 -73l-96 30l257 804l96 -30z" />
    <glyph glyph-name="plus" unicode="+" 
d="M544 330v-88h-200v-200h-88v200h-200v88h200v200h88v-200h200z" />
    <glyph glyph-name="minus" unicode="&#x2212;" 
d="M544 330v-88h-488v88h488z" />
    <glyph glyph-name="multiply" unicode="&#xd7;" 
d="M534 458l-172 -172l172 -172l-62 -62l-172 172l-172 -172l-62 62l172 172l-172 172l62 62l172 -172l172 172z" />
    <glyph glyph-name="divide" unicode="&#xf7;" 
d="M239 424v110h110v-110h-110zM544 330v-88h-488v88h488zM239 34v110h110v-110h-110z" />
    <glyph glyph-name="equal" unicode="=" 
d="M544 430v-88h-488v88h488zM544 230v-88h-488v88h488z" />
    <glyph glyph-name="notequal" unicode="&#x2260;" 
d="M544 342h-179l-47 -112h226v-88h-262l-55 -132l-81 34l41 98h-131v88h167l47 112h-214v88h250l55 132l81 -34l-41 -98h143v-88z" />
    <glyph glyph-name="greater" unicode="&#x3e;" 
d="M56 540l488 -206v-95l-488 -207v96l378 158l-378 158v96z" />
    <glyph glyph-name="less" unicode="&#x3c;" 
d="M544 540v-96l-378 -158l378 -158v-96l-488 207v95z" />
    <glyph glyph-name="greaterequal" unicode="&#x2265;" 
d="M56 540l488 -160v-95l-488 -160v93l361 115l-361 114v93zM56 0v88h488v-88h-488z" />
    <glyph glyph-name="lessequal" unicode="&#x2264;" 
d="M544 540v-93l-361 -114l361 -115v-93l-488 160v95zM56 0v88h488v-88h-488z" />
    <glyph glyph-name="plusminus" unicode="&#xb1;" 
d="M344 377h200v-88h-200v-154h-88v154h-200v88h200v153h88v-153zM56 0v88h488v-88h-488z" />
    <glyph glyph-name="approxequal" unicode="&#x2248;" 
d="M542 412q-17 -48 -53 -76t-81 -28q-31 0 -59.5 11t-68.5 31q-34 17 -51 24t-33 7q-51 0 -75 -63l-67 42q17 49 53 76.5t81 27.5q31 0 60 -11t67 -31q31 -16 49.5 -23t35.5 -7q52 0 75 62zM542 212q-17 -48 -53 -76t-81 -28q-31 0 -59.5 11t-68.5 31q-34 17 -51 24t-33 7
q-51 0 -75 -63l-67 42q17 49 53 76.5t81 27.5q31 0 60 -11t67 -31q31 -16 49.5 -23t35.5 -7q52 0 75 62z" />
    <glyph glyph-name="asciitilde" unicode="~" 
d="M544 312q-17 -48 -53 -76t-81 -28q-31 0 -59.5 11t-68.5 31q-34 17 -51 24t-33 7q-51 0 -75 -63l-67 42q17 49 53 76.5t81 27.5q31 0 59.5 -11t68.5 -31q31 -15 49.5 -22.5t34.5 -7.5q52 0 75 62z" />
    <glyph glyph-name="logicalnot" unicode="&#xac;" 
d="M544 431v-291h-89v204h-399v87h488z" />
    </font>
</defs>
</svg>
